• Игры для PS4
  • Игры для PS3
  • Игры для XBOX360
  • Игры для PC
  • Игры для PS2
  • Игры для PSP
  • Для телефонов
  • Музыка
  • Книги/Журналы
  • Обои
  •  
    Опрос
    Удобен ли сайт в использовании?
      0
    • Очень удобен, все понятно1,1,false,300,full
    • Удобен1,2,false,300,full
    • Средне1,3,false,300,full
    • Неудобен, трудно ориентироваться1,4,false,300,full
    • Совсем неудобен1,5,false,300,full
    Статистика
    Загрузка...
    Машина времени / The Time Machine | WEB-DL 1080p
    Статус  Проверено
    В закладки
    Модератор: Max

    Машина времени / The Time Machine | WEB-DL 1080p [Фильмы 2002] скачать торрентом/torrent бесплатно

    Год выхода
    Язык
    Закачал
    Max | 16 апреля в 08ч 01м 28с
    Раздел
    Отзывов
    0
    Раздают: 8 Качают: 1 Скачали: 25 Размер: 8.35 GB
    Инфо о раздаче | Благодарности |
    0/5
    0
    0 5 0
    Поддержи нас — расскажи друзьям!
    Orbitum
    Новый интернет-браузер Быстрее загружает сайты Экономит интернет—трафик Меняет оформление страницы ВК Блокирует всю рекламу на сайтах Загружает торренты как

    µTorrent

    клиент
    Объеденяет все твои чаты из соц. сетей в один Проигрывает твою музыку не заходя во ВКонтакте
    Скачать и многое другое... Подробности на сайте производителя
    Название: Машина времени
    Оригинальное название: The Time Machine
    Год выпуска: 2002
    Выпущено: США, Arnold Leibovit Entertainment, DreamWorks SKG, Parkes/MacDonald Productions, Warner Bros. Pictures
    Жанр:  Фантастика, приключения, экранизация
    Режиссер: Саймон Уэллс
    В ролях: Гай Пирс, Саманта Мамба, Орландо Джонс, Марк Эдди, Джереми Айронс, Сиенна Гиллори, Макс Бейкер, Филлида Ло, Лаура Кирк, Джош Стэмберг, Джон В. Момроу, Джеффри М. Мейер, Алан Янг, Минди Крист, Конни Рэй, Ленни Лофтин, Томас Кори Робинсон, Омеро Мамба, Янси Ариас, Ричард Цетрон, Эдвард Конна, Крис Сэйор, Джереми Фицджералд, Крэйг Дэвис, Грэйди Холдер, Брайан Фрайдэй

    О фильме:
    Профессор Александр Хартдеген изобрел машину времени и отправился в прошлое спасти свою невесту от случайной пули. Но ее смерть предотвратить не удалось — прошлое нельзя изменить. В поисках ответа на вопрос «почему?» Хартдеген забирается на двести лет в будущее и застает Землю в ужасающем состоянии. Получив ранение и впав в беспамятство, он и не заметил, как его машина прошла сквозь восемьсот тысяч лет истории планеты Земля — человечество изменилось, эпоха технократии канула в лету. Экранизация по произведению Герберта Джорджа Уэллса.

    Продолжительность: 01:35:47
    Перевод: Дублированный, профессиональный многоголосый, профессиональный двухголосый, авторский
    Субтитры: Русские, английские
    Навигация по главам: Есть

    Файл
    Качество: WEB-DL 1080p
    Видео: MPEG-4 AVC, 8804 Кбит/сек, 1920x816, 23,976 кадра/сек
    Аудио #1: AC3, 6 ch, 448 Кбит/сек | Русский, профессиональный (полное дублирование) МОСФИЛЬМ-мастер
    Аудио #2: AC3, 6 ch, 448 Кбит/сек | Русский, профессиональный (многоголосый закадровый) вариант 1
    Аудио #3: AC3, 6 ch, 384 Кбит/сек | Русский, профессиональный (многоголосый закадровый) вариант 2
    Аудио #4: AC3, 2 ch, 192 Кбит/сек | Русский, профессиональный (многоголосый закадровый) Андрей Градов, Алексей Борзунов + женский
    Аудио #5: AC3, 6 ch, 384 Кбит/сек | Русский, профессиональный (двухголосый закадровый) Пётр Гланц и Инна Королёва
    Аудио #6: AC3, 6 ch, 448 Кбит/сек | Русский, авторский (одноголосый закадровый) Сергей Кузнецов
    Аудио #7: AC3, 6 ch, 448 Кбит/сек | Русский, авторский (одноголосый закадровый) Леонид Володарский
    Аудио #8: AC3, 2 ch, 224 Кбит/сек | Русский, авторский (одноголосый закадровый) Леонид Векшин
    Аудио #9: AC3, 6 ch, 448 Кбит/сек | Английский, оригинал



    Скриншоты
    [img]http://img12.lostpic.net/2018/04/16/66f111d76b8962c3e97c358a68f5c1d0.png[/img][img]http://img12.lostpic.net/2018/04/16/939aeaa2da641d8a25d7d833e27f5b60.png[/img][img]http://img12.lostpic.net/2018/04/16/4f4056e9bf094a6ffcbc2f46c6243c2a.png[/img][img]http://img12.lostpic.net/2018/04/16/2a669ae1f76b579495cedde0b04d6ccd.png[/img][img]http://img12.lostpic.net/2018/04/16/df80c4b2a3caea384b2169280cbffed0.png[/img][img]http://img12.lostpic.net/2018/04/16/e8dc89ce75485ad0ae94dd065bd09699.png[/img][img]http://img12.lostpic.net/2018/04/16/b3caf38130d63b317f61b2cca70cc912.png[/img][img]http://img12.lostpic.net/2018/04/16/8c82253f484974e306849e0d54d9da7f.png[/img][img]http://img12.lostpic.net/2018/04/16/e95dbebd9f98eecaf78057dad393fd13.png[/img][img]http://img12.lostpic.net/2018/04/16/051199c53cb338a0e3f24beec26d2016.png[/img][img]http://img12.lostpic.net/2018/04/16/b69c7d57990987f5349458d7f5c4f058.png[/img][img]http://img12.lostpic.net/2018/04/16/2d917c52229003f2a9febcc62bcfab50.png[/img]


    Инфо-файл
    Общее
    Уникальный идентификатор                 : 181221102998662775536155214255353227118 (0x8855EA35B4F131F0ABC6BDECB027E76E)
    Полное имя                               : Машина.времени.2002.WEB-DL.1080p.mkv
    Формат                                   : Matroska
    Версия формата                           : Version 2
    Размер файла                             : 8,35 Гбайт
    Продолжительность                        : 1 ч. 35 м.
    Режим общего битрейта                    : Переменный
    Общий поток                              : 12,5 Мбит/сек
    Дата кодирования                         : UTC 2018-04-15 21:16:01
    Программа кодирования                    : mkvmerge v5.8.0 ("No Sleep / Pillow") built on Sep  2 2012 15:37:04
    Библиотека кодирования                   : libebml v1.2.3 + libmatroska v1.3.0

    Видео
    Идентификатор                            : 1
    Формат                                   : AVC
    Формат/Информация                        : Advanced Video Codec
    Профиль формата                          : High@L4
    Настройки формата                        : CABAC / 4 Ref Frames
    Параметр CABAC формата                   : Да
    Параметр RefFrames формата               : 4 кадра
    Идентификатор кодека                     : V_MPEG4/ISO/AVC
    Продолжительность                        : 1 ч. 35 м.
    Вид битрейта                             : Переменный
    Битрейт                                  : 8804 Кбит/сек
    Максимальный битрейт                     : 15,0 Мбит/сек
    Ширина                                   : 1920 пикселей
    Высота                                   : 816 пикселей
    Соотношение сторон                       : 2,35:1
    Режим частоты кадров                     : Постоянный
    Частота кадров                           : 23,976 (24000/1001) кадра/сек
    Цветовое пространство                    : YUV
    Субдискретизация насыщенности            : 4:2:0
    Битовая глубина                          : 8 бит
    Тип развёртки                            : Прогрессивная
    Бит/(Пиксели*Кадры)                      : 0.234
    Размер потока                            : 5,89 Гбайт (71%)
    Язык                                     : English
    Default                                  : Да
    Forced                                   : Нет
    Цветовой диапазон                        : Limited
    Основные цвета                           : BT.709
    Характеристики трансфера                 : BT.709
    Коэффициенты матрицы                     : BT.709

    Аудио #1
    Идентификатор                            : 2
    Формат                                   : AC-3
    Формат/Информация                        : Audio Coding 3
    Идентификатор кодека                     : A_AC3
    Продолжительность                        : 1 ч. 35 м.
    Вид битрейта                             : Постоянный
    Битрейт                                  : 448 Кбит/сек
    Каналы                                   : 6 каналов
    Расположение каналов                     : Front: L C R, Side: L R, LFE
    Частота                                  : 48,0 КГц
    Частота кадров                           : 31,250 кадров/сек (1536 SPF)
    Битовая глубина                          : 16 бит
    Метод сжатия                             : С потерями
    Размер потока                            : 307 Мбайт (4%)
    Заголовок                                : DUB | МОСФИЛЬМ-мастер
    Язык                                     : Russian
    По умолчанию                             : Да
    Принудительно                            : Нет

    Аудио #2
    Идентификатор                            : 3
    Формат                                   : AC-3
    Формат/Информация                        : Audio Coding 3
    Идентификатор кодека                     : A_AC3
    Продолжительность                        : 1 ч. 35 м.
    Вид битрейта                             : Постоянный
    Битрейт                                  : 448 Кбит/сек
    Каналы                                   : 6 каналов
    Расположение каналов                     : Front: L C R, Side: L R, LFE
    Частота                                  : 48,0 КГц
    Частота кадров                           : 31,250 кадров/сек (1536 SPF)
    Битовая глубина                          : 16 бит
    Метод сжатия                             : С потерями
    Размер потока                            : 307 Мбайт (4%)
    Заголовок                                : MVO | 1
    Язык                                     : Russian
    По умолчанию                             : Нет
    Принудительно                            : Нет

    Аудио #3
    Идентификатор                            : 4
    Формат                                   : AC-3
    Формат/Информация                        : Audio Coding 3
    Идентификатор кодека                     : A_AC3
    Продолжительность                        : 1 ч. 35 м.
    Вид битрейта                             : Постоянный
    Битрейт                                  : 384 Кбит/сек
    Каналы                                   : 6 каналов
    Расположение каналов                     : Front: L C R, Side: L R, LFE
    Частота                                  : 48,0 КГц
    Частота кадров                           : 31,250 кадров/сек (1536 SPF)
    Битовая глубина                          : 16 бит
    Метод сжатия                             : С потерями
    Размер потока                            : 263 Мбайт (3%)
    Заголовок                                : MVO | 2
    Язык                                     : Russian
    По умолчанию                             : Нет
    Принудительно                            : Нет

    Аудио #4
    Идентификатор                            : 5
    Формат                                   : AC-3
    Формат/Информация                        : Audio Coding 3
    Идентификатор кодека                     : A_AC3
    Продолжительность                        : 1 ч. 35 м.
    Вид битрейта                             : Постоянный
    Битрейт                                  : 192 Кбит/сек
    Каналы                                   : 2 канала
    Расположение каналов                     : Front: L R
    Частота                                  : 48,0 КГц
    Частота кадров                           : 31,250 кадров/сек (1536 SPF)
    Битовая глубина                          : 16 бит
    Метод сжатия                             : С потерями
    Размер потока                            : 132 Мбайт (2%)
    Заголовок                                : MVO | А. Градов, А. Борзунов + Женский
    Язык                                     : Russian
    По умолчанию                             : Нет
    Принудительно                            : Нет

    Аудио #5
    Идентификатор                            : 6
    Формат                                   : AC-3
    Формат/Информация                        : Audio Coding 3
    Идентификатор кодека                     : A_AC3
    Продолжительность                        : 1 ч. 35 м.
    Вид битрейта                             : Постоянный
    Битрейт                                  : 384 Кбит/сек
    Каналы                                   : 6 каналов
    Расположение каналов                     : Front: L C R, Side: L R, LFE
    Частота                                  : 48,0 КГц
    Частота кадров                           : 31,250 кадров/сек (1536 SPF)
    Битовая глубина                          : 16 бит
    Метод сжатия                             : С потерями
    Размер потока                            : 263 Мбайт (3%)
    Заголовок                                : DVO | П. Гланц, И. Королёва
    Язык                                     : Russian
    По умолчанию                             : Нет
    Принудительно                            : Нет

    Аудио #6
    Идентификатор                            : 7
    Формат                                   : AC-3
    Формат/Информация                        : Audio Coding 3
    Идентификатор кодека                     : A_AC3
    Продолжительность                        : 1 ч. 35 м.
    Вид битрейта                             : Постоянный
    Битрейт                                  : 448 Кбит/сек
    Каналы                                   : 6 каналов
    Расположение каналов                     : Front: L C R, Side: L R, LFE
    Частота                                  : 48,0 КГц
    Частота кадров                           : 31,250 кадров/сек (1536 SPF)
    Битовая глубина                          : 16 бит
    Метод сжатия                             : С потерями
    Размер потока                            : 307 Мбайт (4%)
    Заголовок                                : AVO | С. Кузнецов
    Язык                                     : Russian
    По умолчанию                             : Нет
    Принудительно                            : Нет

    Аудио #7
    Идентификатор                            : 8
    Формат                                   : AC-3
    Формат/Информация                        : Audio Coding 3
    Идентификатор кодека                     : A_AC3
    Продолжительность                        : 1 ч. 35 м.
    Вид битрейта                             : Постоянный
    Битрейт                                  : 448 Кбит/сек
    Каналы                                   : 6 каналов
    Расположение каналов                     : Front: L C R, Side: L R, LFE
    Частота                                  : 48,0 КГц
    Частота кадров                           : 31,250 кадров/сек (1536 SPF)
    Битовая глубина                          : 16 бит
    Метод сжатия                             : С потерями
    Размер потока                            : 307 Мбайт (4%)
    Заголовок                                : AVO | Л. Володарский
    Язык                                     : Russian
    По умолчанию                             : Нет
    Принудительно                            : Нет

    Аудио #8
    Идентификатор                            : 9
    Формат                                   : AC-3
    Формат/Информация                        : Audio Coding 3
    Идентификатор кодека                     : A_AC3
    Продолжительность                        : 1 ч. 35 м.
    Вид битрейта                             : Постоянный
    Битрейт                                  : 224 Кбит/сек
    Каналы                                   : 2 канала
    Расположение каналов                     : Front: L R
    Частота                                  : 48,0 КГц
    Частота кадров                           : 31,250 кадров/сек (1536 SPF)
    Битовая глубина                          : 16 бит
    Метод сжатия                             : С потерями
    Размер потока                            : 153 Мбайт (2%)
    Заголовок                                : AVO | Л. Векшин
    Язык                                     : Russian
    По умолчанию                             : Нет
    Принудительно                            : Нет

    Аудио #9
    Идентификатор                            : 10
    Формат                                   : AC-3
    Формат/Информация                        : Audio Coding 3
    Идентификатор кодека                     : A_AC3
    Продолжительность                        : 1 ч. 35 м.
    Вид битрейта                             : Постоянный
    Битрейт                                  : 448 Кбит/сек
    Каналы                                   : 6 каналов
    Расположение каналов                     : Front: L C R, Side: L R, LFE
    Частота                                  : 48,0 КГц
    Частота кадров                           : 31,250 кадров/сек (1536 SPF)
    Битовая глубина                          : 16 бит
    Метод сжатия                             : С потерями
    Размер потока                            : 307 Мбайт (4%)
    Заголовок                                : Original
    Язык                                     : English
    По умолчанию                             : Нет
    Принудительно                            : Нет

    Текст #1
    Идентификатор                            : 11
    Формат                                   : UTF-8
    Идентификатор кодека                     : S_TEXT/UTF8
    Идентификатор кодека/Информация          : UTF-8 Plain Text
    Заголовок                                : Forced
    Язык                                     : Russian
    По умолчанию                             : Да
    Принудительно                            : Нет

    Текст #2
    Идентификатор                            : 12
    Формат                                   : UTF-8
    Идентификатор кодека                     : S_TEXT/UTF8
    Идентификатор кодека/Информация          : UTF-8 Plain Text
    Заголовок                                : Full
    Язык                                     : Russian
    По умолчанию                             : Нет
    Принудительно                            : Нет

    Текст #3
    Идентификатор                            : 13
    Формат                                   : UTF-8
    Идентификатор кодека                     : S_TEXT/UTF8
    Идентификатор кодека/Информация          : UTF-8 Plain Text
    Заголовок                                : Full
    Язык                                     : English
    По умолчанию                             : Нет
    Принудительно                            : Нет

    Текст #4
    Идентификатор                            : 14
    Формат                                   : UTF-8
    Идентификатор кодека                     : S_TEXT/UTF8
    Идентификатор кодека/Информация          : UTF-8 Plain Text
    Заголовок                                : SDH, 1
    Язык                                     : English
    По умолчанию                             : Нет
    Принудительно                            : Нет

    Текст #5
    Идентификатор                            : 15
    Формат                                   : UTF-8
    Идентификатор кодека                     : S_TEXT/UTF8
    Идентификатор кодека/Информация          : UTF-8 Plain Text
    Заголовок                                : SDH, 2
    Язык                                     : English
    По умолчанию                             : Нет
    Принудительно                            : Нет

    Меню
    00:00:00.000                             : :Chapter 01
    00:03:35.358                             : :Chapter 02
    00:07:28.441                             : :Chapter 03
    00:12:02.360                             : :Chapter 04
    00:18:15.884                             : :Chapter 05
    00:24:57.548                             : :Chapter 06
    00:30:09.827                             : :Chapter 07
    00:36:22.415                             : :Chapter 08
    00:46:09.294                             : :Chapter 09
    00:53:24.142                             : :Chapter 10
    01:01:26.020                             : :Chapter 11
    01:08:12.450                             : :Chapter 12
    01:17:35.121                             : :Chapter 13
    01:22:36.349                             : :Chapter 14
    01:26:26.773                             : :Chapter 15
    01:29:55.581                             : :Chapter 16
    01:35:42.229                             : :Chapter 17


    Благодарности
    Hel_ka67 - Спасибо за дорожку #4.


    Дополнительная информация
    Дорожка #4:
    На место, где звук совершенно испорчен (01:25:30 - "Держись" > 01:26:42 - "Очень жаль твою машину"), вставлен кусок из #3 многоголоски.
    Далее есть тоже небольшие дефекты звука, но они не напрягают, в конце 01:29:47, после фразы "Счастливого пути мой юный друг, будь счастлив", окончание взято из оригинальной дорожки.
    • Исходник видео WEB-DL Amazon.


    Сборка: [img]http://i1.imageban.ru/out/2018/02/13/db08a675822da337df05f97bda2ce544.gif[/img]
    Еще похожие »

    Как скачать?
    1. Качаем UTorrent версии 2.0 и выше отсюда
    2. После установки, жмем на ссылку Скачать торрент.
    3. Открываем его через utorrent.
    4. Ждем пока подключатся участники.
    5. Качаем.


    Комментарии о Машина времени / The Time Machine | WEB-DL 1080p
    Добавлять комментарии могут только зарегистрированные пользователи

    Зарегистрироваться или Войти


    Ближайшее в кино
    • Аллилуйя! дата выхода 13 ноября 2018Аллилуйя!
      Дата выхода: 13 ноября 2018
    • 1199695|Coldplay: A Head Full of Dreams|14 ноября 2018|200|300Coldplay: A Head Full of Dreams
      Дата выхода: 14 ноября 2018
    • 843479|Фантастические твари: Преступления Грин-де-Вальда|15 ноября 2018|200|300Фантастические твари: Преступления Грин-де-Вальда
      Дата выхода: 15 ноября 2018
    • 1070264|Догмэн|15 ноября 2018|200|300Догмэн
      Дата выхода: 15 ноября 2018
    • 1068448|Оцепеневшие от страха|15 ноября 2018|200|300Оцепеневшие от страха
      Дата выхода: 15 ноября 2018
    • 1065878|Холодная война|15 ноября 2018|200|300Холодная война
      Дата выхода: 15 ноября 2018
    • 933787|Не чужие|15 ноября 2018|200|300Не чужие
      Дата выхода: 15 ноября 2018
    • 1045040|Облепиховое лето|15 ноября 2018|200|300Облепиховое лето
      Дата выхода: 15 ноября 2018
    • 1085625|Соната|15 ноября 2018|200|300Соната
      Дата выхода: 15 ноября 2018
    • 1174349|Безумие Георга III|20 ноября 2018|200|300Безумие Георга III
      Дата выхода: 20 ноября 2018
    • 7226|Догвилль|22 ноября 2018|200|300Догвилль
      Дата выхода: 22 ноября 2018
    • 1009784|Апгрейд|22 ноября 2018|200|300Апгрейд
      Дата выхода: 22 ноября 2018
    • 988782|Ральф против интернета|22 ноября 2018|200|300Ральф против интернета
      Дата выхода: 22 ноября 2018
    • 965901|Вдовы|22 ноября 2018|200|300Вдовы
      Дата выхода: 22 ноября 2018
    • 1011685|Нация убийц|22 ноября 2018|200|300Нация убийц
      Дата выхода: 22 ноября 2018
    Вверх