• Игры для PS3
  • Игры для XBOX360
  • Игры для PC
  • Игры для PS2
  • Игры для PSP
  • Для телефонов
  • Музыка
  • Книги/Журналы
  • Обои
  •  
    Опрос
    Откуда Вы о нас узнали?
      0
    • От знакомых2,1,false,300,full
    • Из социальных сетей2,2,false,300,full
    • Из поисковых систем2,3,false,300,full
    • Другое2,4,false,300,full
    Статистика
    Загрузка...
    Эш против Зловещих мертвецов / Ash vs Evil Dead [Сезон 03 | 01-08 серии из 10] | WEBRip 720p
    Статус  Проверено
    В закладки
    Модератор: Max

    Эш против Зловещих мертвецов / Ash vs Evil Dead [Сезон 03 | 01-08 серии из 10] | WEBRip 720p [Сериалы 2018] скачать торрентом/torrent бесплатно

    Год выхода
    Категории
    Язык
    Закачал
    Аноним | 16 апреля в 09ч 07м 15с
    Раздел
    Отзывов
    0
    Раздают: 2 Качают: 12 Скачали: 2 Размер: 6.79 GB
    Инфо о раздаче | Благодарности |
    0/5
    0
    0 5 0
    Поддержи нас — расскажи друзьям!
    Orbitum
    Новый интернет-браузер Быстрее загружает сайты Экономит интернет—трафик Меняет оформление страницы ВК Блокирует всю рекламу на сайтах Загружает торренты как

    µTorrent

    клиент
    Объеденяет все твои чаты из соц. сетей в один Проигрывает твою музыку не заходя во ВКонтакте
    Скачать и многое другое... Подробности на сайте производителя
    Информация о фильме
    Название: Эш против Зловещих мертвецов
    Оригинальное название: Ash vs Evil Dead
    Год выпуска: 2018
    Жанр:  Ужасы, боевик, комедия
    Режиссер: Майкл Херст, Рик Джейкобсон, Сэм Рэйми
    В ролях: Брюс Кэмпбелл, Джилл Мари Джонс, Дэна ДеЛоренцо, Люси Лоулесс, Рэй Сантьяго, Мими Роджерс, Хемки Мадера, Фил Пелетон, Дэмиен Гарви

    О фильме:
    30 лет он избегал ответственности за свои поступки, упорно старался не взрослеть и не особо стремился вновь встретиться с ожившими мертвецами. Но, совершив ошибку, Эш узнает, что проказа кандарийских демонов угрожает распространиться по всей планете и ему снова приходится вступить в схватку с полчищами мертвой нечисти. Реки крови, горы трупов и, конечно, искрометный черный юмор – отличный подарок всем любителям ужасов, комедий, крови, треша и угара.

    [img]https://u.myshows.me/r/39469.png[/img]

    Страна: США
    Студия: Starz, Renaissance Pictures
    Продолжительность: 8x ~00:40:00
    Перевод: Любительский многоголосый [GostFilm]

    Файл
    Кодек: x264
    Качество: WEBRip 720p
    Видео: ~3272 Кбит/с, 1280x720, 23.976 fps
    Аудио: Русский (AC-3, 2 ch, 320 Кбит/с), английский (EAC3, 6 ch, 640 Кбит/с)

    [img]http://s020.radikal.ru/i712/1701/ad/1bb0bd9bc94a.gif[/img]



    MediaInfo
    General
    Unique ID                   : 246474995450360387886265057358075976543 (0xB96D5B8067B1D09E9BBF68BD2130DB5F)
    Complete name               : E:Ash.vs.Evil.Dead.S03.720p.GostFilmAsh.vs.Evil.Dead.S03E01.720p.GostFilm.mkv
    Format                      : Matroska
    Format version              : Version 4 / Version 2
    File size                   : 834 MiB
    Duration                    : 27 min 33 s
    Overall bit rate mode       : Variable
    Overall bit rate            : 4 233 kb/s
    Encoded date                : UTC 2018-02-25 16:37:07
    Writing application         : mkvmerge v9.3.1 ("Mask Machine") 64bit
    Writing library             : libebml v1.3.4 + libmatroska v1.4.5

    Video
    ID                          : 1
    Format                      : AVC
    Format/Info                 : Advanced Video Codec
    Format profile              : High@L3.1
    Format settings, CABAC      : Yes
    Format settings, ReFrames   : 5 frames
    Codec ID                    : V_MPEG4/ISO/AVC
    Duration                    : 27 min 32 s
    Bit rate mode               : Variable
    Bit rate                    : 3 275 kb/s
    Maximum bit rate            : 4 500 kb/s
    Width                       : 1 280 pixels
    Height                      : 720 pixels
    Display aspect ratio        : 16:9
    Frame rate mode             : Constant
    Frame rate                  : 23.976 (24000/1001) FPS
    Color space                 : YUV
    Chroma subsampling          : 4:2:0
    Bit depth                   : 8 bits
    Scan type                   : Progressive
    Bits/(Pixel*Frame)          : 0.148
    Stream size                 : 645 MiB (77%)
    Language                    : English
    Default                     : Yes
    Forced                      : No
    Color range                 : Limited
    Color primaries             : BT.709
    Transfer characteristics    : BT.709
    Matrix coefficients         : BT.709

    Audio #1
    ID                          : 2
    Format                      : AAC
    Format/Info                 : Advanced Audio Codec
    Format profile              : LC
    Codec ID                    : A_AAC
    Duration                    : 27 min 33 s
    Bit rate                    : 317 kb/s
    Channel(s)                  : 2 channels
    Channel positions           : Front: L R
    Sampling rate               : 48.0 kHz
    Frame rate                  : 46.875 FPS (1024 spf)
    Compression mode            : Lossy
    Delay relative to video     : -71 ms
    Stream size                 : 62.5 MiB (7%)
    Language                    : Russian
    Default                     : Yes
    Forced                      : Yes

    Audio #2
    ID                          : 3
    Format                      : E-AC-3
    Format/Info                 : Audio Coding 3
    Format settings, Endianness : Big
    Codec ID                    : A_EAC3
    Duration                    : 27 min 32 s
    Bit rate mode               : Constant
    Bit rate                    : 640 kb/s
    Channel(s)                  : 6 channels
    Channel positions           : Front: L C R, Side: L R, LFE
    Sampling rate               : 48.0 kHz
    Frame rate                  : 187.500 FPS (256 spf)
    Compression mode            : Lossy
    Delay relative to video     : -71 ms
    Stream size                 : 126 MiB (15%)
    Language                    : English
    Default                     : No
    Forced                      : No


    Как скачать?
    1. Качаем UTorrent версии 2.0 и выше отсюда
    2. После установки, жмем на ссылку Скачать торрент.
    3. Открываем его через utorrent.
    4. Ждем пока подключатся участники.
    5. Качаем.


    Комментарии о Эш против Зловещих мертвецов / Ash vs Evil Dead [Сезон 03 | 01-08 серии из 10] | WEBRip 720p
    Добавлять комментарии могут только зарегистрированные пользователи

    Зарегистрироваться или Войти


    Ближайшее в кино
    • Тренер дата выхода 19 апреля 2018Тренер
      Дата выхода: 19 апреля 2018
    • 930555|Титан|19 апреля 2018|200|300Титан
      Дата выхода: 19 апреля 2018
    • 979129|Третья волна зомби|19 апреля 2018|200|300Третья волна зомби
      Дата выхода: 19 апреля 2018
    • 958501|Опасный бизнес|19 апреля 2018|200|300Опасный бизнес
      Дата выхода: 19 апреля 2018
    • 799482|Логово Монстра|19 апреля 2018|200|300Логово Монстра
      Дата выхода: 19 апреля 2018
    • 924167|Точка невозврата|19 апреля 2018|200|300Точка невозврата
      Дата выхода: 19 апреля 2018
    • 1103852|Укрась прощальное утро цветами обещания|19 апреля 2018|200|300Укрась прощальное утро цветами обещания
      Дата выхода: 19 апреля 2018
    • 845128|Я заберу твои деньги|19 апреля 2018|200|300Я заберу твои деньги
      Дата выхода: 19 апреля 2018
    • 1062316|Свинья|19 апреля 2018|200|300Свинья
      Дата выхода: 19 апреля 2018
    • 1075751|Фея|19 апреля 2018|200|300Фея
      Дата выхода: 19 апреля 2018
    • 1082597|Леонардо: Миссия Мона Лиза|19 апреля 2018|200|300Леонардо: Миссия Мона Лиза
      Дата выхода: 19 апреля 2018
    • 986511|Вествуд: Панк, икона, активист|19 апреля 2018|200|300Вествуд: Панк, икона, активист
      Дата выхода: 19 апреля 2018
    • 1047724|Привидение|26 апреля 2018|200|300Привидение
      Дата выхода: 26 апреля 2018
    • 1045590|Правда или действие|26 апреля 2018|200|300Правда или действие
      Дата выхода: 26 апреля 2018
    • 841470|Смешарики. Дежавю|26 апреля 2018|200|300Смешарики. Дежавю
      Дата выхода: 26 апреля 2018
    Вверх