• Игры для PS3
  • Игры для XBOX360
  • Игры для PC
  • Игры для PS2
  • Игры для PSP
  • Для телефонов
  • Музыка
  • Книги/Журналы
  • Обои
  •  
    Опрос
    Откуда Вы о нас узнали?
      0
    • От знакомых2,1,false,300,full
    • Из социальных сетей2,2,false,300,full
    • Из поисковых систем2,3,false,300,full
    • Другое2,4,false,300,full
    Статистика
    Загрузка...
    Эш против Зловещих мертвецов / Ash vs Evil Dead [Сезон 03 | 01-08 серии из 10] | WEBRip
    Статус  Проверено
    В закладки
    Модератор: Max

    Эш против Зловещих мертвецов / Ash vs Evil Dead [Сезон 03 | 01-08 серии из 10] | WEBRip [Сериалы 2018] скачать торрентом/torrent бесплатно

    Год выхода
    Категории
    Язык
    Закачал
    Max | 16 апреля в 09ч 07м 43с
    Раздел
    Отзывов
    0
    Раздают: 5 Качают: 42 Скачали: 8 Размер: 2.5 GB
    Инфо о раздаче | Благодарности |
    0/5
    0
    0 5 0
    Поддержи нас — расскажи друзьям!
    Orbitum
    Новый интернет-браузер Быстрее загружает сайты Экономит интернет—трафик Меняет оформление страницы ВК Блокирует всю рекламу на сайтах Загружает торренты как

    µTorrent

    клиент
    Объеденяет все твои чаты из соц. сетей в один Проигрывает твою музыку не заходя во ВКонтакте
    Скачать и многое другое... Подробности на сайте производителя
    Информация о фильме
    Название: Эш против Зловещих мертвецов
    Оригинальное название: Ash vs Evil Dead
    Год выпуска: 2018
    Жанр:  Ужасы, боевик, комедия
    Режиссер: Майкл Херст, Рик Джейкобсон, Сэм Рэйми
    В ролях: Брюс Кэмпбелл, Джилл Мари Джонс, Дэна ДеЛоренцо, Люси Лоулесс, Рэй Сантьяго, Мими Роджерс, Хемки Мадера, Фил Пелетон, Дэмиен Гарви

    О фильме:
    30 лет он избегал ответственности за свои поступки, упорно старался не взрослеть и не особо стремился вновь встретиться с ожившими мертвецами. Но, совершив ошибку, Эш узнает, что проказа кандарийских демонов угрожает распространиться по всей планете и ему снова приходится вступить в схватку с полчищами мертвой нечисти. Реки крови, горы трупов и, конечно, искрометный черный юмор – отличный подарок всем любителям ужасов, комедий, крови, треша и угара.

    [img]https://u.myshows.me/r/39469.png[/img]

    Страна: США
    Студия: Starz, Renaissance Pictures
    Продолжительность: 8x ~00:40:00
    Перевод: Любительский многоголосый [GostFilm]

    Файл
    Кодек: Xvid
    Качество: WEBRip
    Видео: ~1469 Кбит/с, 720x400, 23.976 fps
    Аудио: Русский (mp3, 2 ch, 320 Кбит/с)

    [img]http://s020.radikal.ru/i712/1701/ad/1bb0bd9bc94a.gif[/img]


    MediaInfo
    General
    Complete name               : E:Ash.vs.Evil.Dead.S03.400p.GostFilmAsh.vs.Evil.Dead.S03E01.400p.GostFilm.avi
    Format                      : AVI
    Format/Info                 : Audio Video Interleave
    File size                   : 360 MiB
    Duration                    : 27 min 59 s
    Overall bit rate            : 1 799 kb/s
    Writing application         : Lavf57.83.100
    Writing library             : VirtualDub build 35491/release

    Video
    ID                          : 0
    Format                      : MPEG-4 Visual
    Format profile              : Advanced Simple@L5
    Format settings, BVOP       : 2
    Format settings, QPel       : No
    Format settings, GMC        : No warppoints
    Format settings, Matrix     : Default (H.263)
    Codec ID                    : XVID
    Codec ID/Hint               : XviD
    Duration                    : 27 min 59 s
    Bit rate                    : 1 469 kb/s
    Width                       : 720 pixels
    Height                      : 400 pixels
    Display aspect ratio        : 16:9
    Frame rate                  : 25.000 FPS
    Color space                 : YUV
    Chroma subsampling          : 4:2:0
    Bit depth                   : 8 bits
    Scan type                   : Progressive
    Compression mode            : Lossy
    Bits/(Pixel*Frame)          : 0.204
    Stream size                 : 294 MiB (82%)
    Writing library             : XviD 67

    Audio
    ID                          : 1
    Format                      : MPEG Audio
    Format version              : Version 1
    Format profile              : Layer 3
    Mode                        : Joint stereo
    Codec ID                    : 55
    Codec ID/Hint               : MP3
    Duration                    : 27 min 59 s
    Bit rate mode               : Constant
    Bit rate                    : 320 kb/s
    Channel(s)                  : 2 channels
    Sampling rate               : 48.0 kHz
    Compression mode            : Lossy
    Stream size                 : 64.1 MiB (18%)
    Alignment                   : Split accross interleaves
    Interleave, duration        : 40  ms (1.00 video frame)
    Interleave, preload duratio : 500  ms
    Writing library             : LAME3.99.5ЄЄЄЄЄЄЄЄЄЄ


    Как скачать?
    1. Качаем UTorrent версии 2.0 и выше отсюда
    2. После установки, жмем на ссылку Скачать торрент.
    3. Открываем его через utorrent.
    4. Ждем пока подключатся участники.
    5. Качаем.


    Комментарии о Эш против Зловещих мертвецов / Ash vs Evil Dead [Сезон 03 | 01-08 серии из 10] | WEBRip
    Добавлять комментарии могут только зарегистрированные пользователи

    Зарегистрироваться или Войти


    Ближайшее в кино
    • Тренер дата выхода 19 апреля 2018Тренер
      Дата выхода: 19 апреля 2018
    • 930555|Титан|19 апреля 2018|200|300Титан
      Дата выхода: 19 апреля 2018
    • 979129|Третья волна зомби|19 апреля 2018|200|300Третья волна зомби
      Дата выхода: 19 апреля 2018
    • 958501|Опасный бизнес|19 апреля 2018|200|300Опасный бизнес
      Дата выхода: 19 апреля 2018
    • 799482|Логово Монстра|19 апреля 2018|200|300Логово Монстра
      Дата выхода: 19 апреля 2018
    • 924167|Точка невозврата|19 апреля 2018|200|300Точка невозврата
      Дата выхода: 19 апреля 2018
    • 1103852|Укрась прощальное утро цветами обещания|19 апреля 2018|200|300Укрась прощальное утро цветами обещания
      Дата выхода: 19 апреля 2018
    • 845128|Я заберу твои деньги|19 апреля 2018|200|300Я заберу твои деньги
      Дата выхода: 19 апреля 2018
    • 1062316|Свинья|19 апреля 2018|200|300Свинья
      Дата выхода: 19 апреля 2018
    • 1075751|Фея|19 апреля 2018|200|300Фея
      Дата выхода: 19 апреля 2018
    • 1082597|Леонардо: Миссия Мона Лиза|19 апреля 2018|200|300Леонардо: Миссия Мона Лиза
      Дата выхода: 19 апреля 2018
    • 986511|Вествуд: Панк, икона, активист|19 апреля 2018|200|300Вествуд: Панк, икона, активист
      Дата выхода: 19 апреля 2018
    • 1047724|Привидение|26 апреля 2018|200|300Привидение
      Дата выхода: 26 апреля 2018
    • 1045590|Правда или действие|26 апреля 2018|200|300Правда или действие
      Дата выхода: 26 апреля 2018
    • 841470|Смешарики. Дежавю|26 апреля 2018|200|300Смешарики. Дежавю
      Дата выхода: 26 апреля 2018
    Вверх