• Игры для PS4
  • Игры для PS3
  • Игры для XBOX360
  • Игры для PC
  • Игры для PS2
  • Игры для PSP
  • Для телефонов
  • Музыка
  • Книги / Журналы
  • Обои
  • Опрос
    Откуда Вы о нас узнали?
      0
    • От знакомых2,1,false,300,full
    • Из социальных сетей2,2,false,300,full
    • Из поисковых систем2,3,false,300,full
    • Другое2,4,false,300,full
    Статистика
    Всего онлайн -
    Гостей -
    Пользователей -
    Короли трекера
    
    Благодарности () Закрыть
    Быстрее загружает сайты Экономит интернет—трафик Меняет оформление страницы ВК Блокирует всю рекламу на сайтах Загружает торренты как µTorrent клиент Объеденяет все твои чаты из соц. сетей в один Проигрывает твою музыку не заходя во ВКонтакте
    Новый интернет-браузер
    Оrbitum
    Скачать
    и многое другое... Подробности на сайте производителя
    Страна: СССР
    Производство: К/ст им. Довженко

    Жанр:  мелодрама, приключения
    Год выпуска: 1960
    Продолжительность: 01:13:49

    Перевод: Не требуется
    Cубтитры: нет
    Оригинальная аудиодорожка: русский

    Режиссер: Алексей Мишурин

    В ролях:
    Александр Белявский, Лидия Федосеева-Шукшина, Виктор Добровольский, Михаил Орлов, Николай Яковченко, Валерий Рудой, Наталья Малявина, Сергей Петров, Сергей Мартинсон, Юрий Прокопович, Александр Гумбург, Борис Хенкин, Наталья Наум, Александр Ануров...

    Описание:
    Судно «Запорожец» отплывает в очередной заграничный рейс. Когда судно уже находилось в открытом океане, радистка Леся Гордиенко (Лидия Федосеева) приняла радиограмму СОС с яхты, на которой была дочь английского судопромышленника Элис Мейсфилд со своим женихом Майклом Пейтоном. Отобрав у Элис спасательный пояс, Майкл бросился в воду, оставив Элис на горящей яхте. Тонущую Элис спасает Юрий Цымбалюк (Александр Белявский), курсант мореходного училища.

    [img]http://new-team.org/images/sample_video.png[/img]

    Исходник: DVB
    Качество видео: SATRip
    Формат видео: AVI

    Видео: 704x512 (1,375:1), 25,000 кадров/сек, XviD ~ 1912 kbps avg, 0.157 bit/pixel
    Аудио: 48 kHz, Dolby Digital AC3 2.0, 192 kbps

    MediaInfo

    Общее
    Полное имя                               : Spasite.nashi.dushi.1960.SATRip_[New-team]_by_AVP_Studio.avi
    Формат                                   : AVI
    Формат/Информация                        : Audio Video Interleave
    Размер файла                             : 1,09 Гбайт
    Продолжительность                        : 1 ч. 13 м.
    Общий поток                              : 2114 Кбит/сек
    Программа кодирования                    : VirtualDubMod 1.5.10.3 | www.virtualdub-fr.org || (build 2550/release)
    Библиотека кодирования                   : VirtualDubMod build 2550/release

    Видео
    Идентификатор                            : 0
    Формат                                   : MPEG-4 Visual
    Профиль формата                          : Advanced Simple@L5
    Настройки формата                        : BVOP1 / Custom Matrix
    Параметр BVOP формата                    : 1
    Параметр QPel формата                    : Нет
    Параметр GMC формата                     : Без точки перехода
    Параметр матрицы формата                 : Выборочная
    Идентификатор кодека                     : XVID
    Идентификатор кодека/Подсказка           : XviD
    Продолжительность                        : 1 ч. 13 м.
    Битрейт                                  : 1912 Кбит/сек
    Ширина                                   : 704 пикселя
    Высота                                   : 512 пикселей
    Соотношение сторон                       : 1,375
    Частота кадров                           : 25,000 кадров/сек
    Цветовое пространство                    : YUV
    Субдискретизация насыщенности            : 4:2:0
    Битовая глубина                          : 8 бит
    Тип развёртки                            : Прогрессивная
    Метод сжатия                             : С потерями
    Бит/(Пиксели*Кадры)                      : 0.212
    Размер потока                            : 1009 Мбайт (90%)
    Библиотека кодирования                   : XviD 73

    Аудио
    Идентификатор                            : 1
    Формат                                   : AC-3
    Формат/Информация                        : Audio Coding 3
    Идентификатор кодека                     : 2000
    Продолжительность                        : 1 ч. 13 м.
    Вид битрейта                             : Постоянный
    Битрейт                                  : 192 Кбит/сек
    Каналы                                   : 2 канала
    Расположение каналов                     : Front: L R
    Частота                                  : 48,0 КГц
    Частота кадров                           : 31,250 кадров/сек (1536 SPF)
    Битовая глубина                          : 16 бит
    Метод сжатия                             : С потерями
    Размер потока                            : 101 Мбайт (9%)
    Выравнивание                             : Разделение по промежуткам
    Продолжительность промежутка             : 40  мс. (1,00 видеокадр)
    Время предзагрузки промежутка            : 500  мс
    Свернуть


    Скриншоты

    [screen]http://i3.imageban.ru/out/2018/04/16/67bbe72fe523381228647a80a4d9f47c.png[/screen][screen]http://i5.imageban.ru/out/2018/04/16/85594969973987b828404ab7b6d31e96.png[/screen][screen]http://i2.imageban.ru/out/2018/04/16/5df7e00b6f5586c57006e1906012a715.png[/screen][screen]http://i2.imageban.ru/out/2018/04/16/ef0e40dea889f49ce3f6564a74a7d69f.png[/screen]
    Свернуть
    Похожие раздачи Искать похожие
    Инструкция по скачиванию
     1  Качаем uTorrent версии 2.0 и выше
     2  После установки, жмем выше под постером на ссылку Скачать [MediaGet] или Скачать .torrent
     3  Открываем скачанный файл через соответствующий клиент: MediaGet или uTorrent
     4  Ждем пока подключатся участники
     5  Качаем
    Комментарии о  Спасите наши души | SATRip 
    Ближайшее в кино
    Вверх