• Игры для PS3
  • Игры для XBOX360
  • Игры для PC
  • Игры для PS2
  • Игры для PSP
  • Для телефонов
  • Музыка
  • Книги/Журналы
  • Обои
  •  
    Опрос
    Удобен ли сайт в использовании?
      0
    • Очень удобен, все понятно1,1,false,300,full
    • Удобен1,2,false,300,full
    • Средне1,3,false,300,full
    • Неудобен, трудно ориентироваться1,4,false,300,full
    • Совсем неудобен1,5,false,300,full
    Статистика
    Загрузка...
    Смерть по прибытии / Dead on Arrival | WEBRip 1080p
    Статус  Проверено
    В закладки
    Модератор: Max

    Смерть по прибытии / Dead on Arrival | WEBRip 1080p [Фильмы 2017] скачать торрентом/torrent бесплатно

    Год выхода
    Категории
    Язык
    Закачал
    Max | 16 апреля в 11ч 50м 21с
    Раздел
    Отзывов
    0
    Раздают: 105 Качают: 6 Скачали: 306 Размер: 3.57 GB
    Инфо о раздаче | Благодарности |
    0/5
    0
    0 5 0
    Поддержи нас — расскажи друзьям!
    Orbitum
    Новый интернет-браузер Быстрее загружает сайты Экономит интернет—трафик Меняет оформление страницы ВК Блокирует всю рекламу на сайтах Загружает торренты как

    µTorrent

    клиент
    Объеденяет все твои чаты из соц. сетей в один Проигрывает твою музыку не заходя во ВКонтакте
    Скачать и многое другое... Подробности на сайте производителя
    Название: Смерть по прибытии
    Оригинальное название: Dead on Arrival
    Год выпуска: 2017
    Жанр:  Триллер
    Выпущено: США, Boatyard Productions
    Режиссер: Стивен Сефер
    В ролях: Криста Б. Аллен, Скотти Томпсон, Д.Б. Суини, Лилло Бранкато, Крис Малки, Билли Слотер, Лаура Флэннери, Билли Флинн, Мария О"Брайэн, Мэттью Полкамп

    О фильме: Герой этой истории, волей своей работы, должен отправится в небольшой городок, с целью самой обычной командировки. По прибытию он будет должен подписать выгодный контракт с возможными партнерами, что заинтересованны в поставках новой вакцины. Вот только поездка будет далека от обычных трудовых будней героя. Ведь он окажется в довольно странной ситуации. Город, в который он должен прибыть, далек от понимания покоя. Пускай он небольшой, но его отрезанность от окружающего мира, в корне изменила облик существования там людей. Это место, буквально погрязло во множестве бандитских разборок и постоянных мелких войн за сферы влияния. И конечно же, местные полицейские, смотрят на это дело с малой долей заинтересованности. Как собственно делают и политики, что судя по всему, напрямую замешаны в преступные дела. И даже будущие партнеры героя, оказываются втянутыми в темные делишки. И именно по этой причине, самый обычный работник фирмы, вынужденно оказывается в самом центре всех этих проблем. Но выбора нет, он обязан закрыть сделку и выйти из данной ситуации победителем. Только судя по всему, будет его путь очень трудным. Ведь многие захотят помешать герою ввиду личной выгоды и методы их будут далеки от нормальных.



    Качество: WEBRip 1080p
    Видео: MPEG-4 AVC, 4389 Кбит/с, 1920x804
    Аудио #1: Русский (AC3, 6 ch, 384 Кбит/с)
    Аудио #2: английский (AC3, 6 ch, 384 Кбит/с)
    Продолжительность: 01:37:10
    Перевод: Любительский (многоголосый, закадровый)  [HDrezka Studio]
    Субтитры: Английские

    Без рекламы!

    MediaInfo
    Unique ID                      : 173029528364893501188330374223987047681 (0x822C466603AA15589F50AA6151417D01)
    Complete name                  : D:фильмыSmert po pribitiu.2017.WEBRip 1080p.mkv
    Format                         : Matroska
    Format version                 : Version 2
    File size                      : 3.57 GiB
    Duration                       : 1h 37mn
    Overall bit rate               : 5 262 Kbps
    Encoded date                   : UTC 2018-04-15 12:42:18
    Writing application            : mkvmerge v7.8.0 ("River Man") 32bit built on Apr  3 2015 12:11:22
    Writing library                : libebml v1.3.1 + libmatroska v1.4.2

    Video
    ID                             : 1
    Format                         : AVC
    Format/Info                    : Advanced Video Codec
    Format profile                 : High@L4.0
    Format settings, CABAC         : Yes
    Format settings, ReFrames      : 5 frames
    Codec ID                       : V_MPEG4/ISO/AVC
    Duration                       : 1h 37mn
    Bit rate                       : 4 389 Kbps
    Width                          : 1 920 pixels
    Height                         : 804 pixels
    Display aspect ratio           : 2.40:1
    Frame rate mode                : Constant
    Frame rate                     : 23.976 fps
    Color space                    : YUV
    Chroma subsampling             : 4:2:0
    Bit depth                      : 8 bits
    Scan type                      : Progressive
    Bits/(Pixel*Frame)             : 0.119
    Stream size                    : 2.98 GiB (83%)
    Language                       : English
    Default                        : Yes
    Forced                         : No
    Color primaries                : BT.709
    Transfer characteristics       : BT.709
    Matrix coefficients            : BT.709

    Audio #1
    ID                             : 2
    Format                         : AC-3
    Format/Info                    : Audio Coding 3
    Mode extension                 : CM (complete main)
    Format settings, Endianness    : Big
    Codec ID                       : A_AC3
    Duration                       : 1h 37mn
    Bit rate mode                  : Constant
    Bit rate                       : 384 Kbps
    Channel(s)                     : 6 channels
    Channel positions              : Front: L C R, Side: L R, LFE
    Sampling rate                  : 48.0 KHz
    Bit depth                      : 16 bits
    Compression mode               : Lossy
    Stream size                    : 267 MiB (7%)
    Language                       : Russian
    Default                        : Yes
    Forced                         : Yes

    Audio #2
    ID                             : 3
    Format                         : AC-3
    Format/Info                    : Audio Coding 3
    Mode extension                 : CM (complete main)
    Format settings, Endianness    : Big
    Codec ID                       : A_AC3
    Duration                       : 1h 37mn
    Bit rate mode                  : Constant
    Bit rate                       : 384 Kbps
    Channel(s)                     : 6 channels
    Channel positions              : Front: L C R, Side: L R, LFE
    Sampling rate                  : 48.0 KHz
    Bit depth                      : 16 bits
    Compression mode               : Lossy
    Stream size                    : 267 MiB (7%)
    Language                       : English
    Default                        : No
    Forced                         : No

    Text
    ID                             : 4
    Format                         : UTF-8
    Codec ID                       : S_TEXT/UTF8
    Codec ID/Info                  : UTF-8 Plain Text
    Language                       : English
    Default                        : No
    Forced                         : No

    Menu
    00:00:00.000                   : en:1
    00:04:01.241                   : en:2
    00:12:11.773                   : en:3
    00:18:54.133                   : en:4
    00:26:30.756                   : en:5
    00:29:32.938                   : en:6
    00:36:11.294                   : en:7
    00:41:59.976                   : en:8
    00:48:26.278                   : en:9
    00:53:37.964                   : en:10
    01:01:42.948                   : en:11
    01:07:06.771                   : en:12
    01:11:59.563                   : en:13
    01:17:18.423                   : en:14
    01:24:25.933                   : en:15
    01:31:53.839                   : en:16



    Скриншоты
    [img]http://i105.fastpic.ru/big/2018/0416/3c/6b0a38d0c6c7b15a23a1506da260003c.jpg[/img][img]http://i105.fastpic.ru/big/2018/0416/4a/ddaf4d3499672e11b586231cb866ef4a.jpg[/img][img]http://i105.fastpic.ru/big/2018/0416/54/f0d619ee032ee4434a5eb6898d7f8554.jpg[/img][img]http://i105.fastpic.ru/big/2018/0416/8a/64b2317d2fe994824a10a7ebe41d388a.jpg[/img][img]http://i105.fastpic.ru/big/2018/0416/8e/5731e995dbf62ac1b7c78726c5deac8e.jpg[/img][img]http://i105.fastpic.ru/big/2018/0416/93/15cb4d6f2229d9e4de4a676e5f6f7593.jpg[/img][img]http://i105.fastpic.ru/big/2018/0416/f5/3f58bf073b10045bde5702624d26f0f5.jpg[/img][img]http://i105.fastpic.ru/big/2018/0416/fe/8b9fe8ed5491f81a40f30a4379a6c6fe.jpg[/img]
    Еще похожие »

    Как скачать?
    1. Качаем UTorrent версии 2.0 и выше отсюда
    2. После установки, жмем на ссылку Скачать торрент.
    3. Открываем его через utorrent.
    4. Ждем пока подключатся участники.
    5. Качаем.


    Комментарии о Смерть по прибытии / Dead on Arrival | WEBRip 1080p
    Добавлять комментарии могут только зарегистрированные пользователи

    Зарегистрироваться или Войти


    Ближайшее в кино
    • Привидение дата выхода 26 апреля 2018Привидение
      Дата выхода: 26 апреля 2018
    • 1045590|Правда или действие|26 апреля 2018|200|300Правда или действие
      Дата выхода: 26 апреля 2018
    • 841470|Смешарики. Дежавю|26 апреля 2018|200|300Смешарики. Дежавю
      Дата выхода: 26 апреля 2018
    • 1046545|Танки|26 апреля 2018|200|300Танки
      Дата выхода: 26 апреля 2018
    • 1027311|Дыши во мгле|26 апреля 2018|200|300Дыши во мгле
      Дата выхода: 26 апреля 2018
    • 959260|Миссис Хайд|26 апреля 2018|200|300Миссис Хайд
      Дата выхода: 26 апреля 2018
    • 845128|Я заберу твои деньги|26 апреля 2018|200|300Я заберу твои деньги
      Дата выхода: 26 апреля 2018
    • 1112036|Лицо|26 апреля 2018|200|300Лицо
      Дата выхода: 26 апреля 2018
    • 1076322|Великолепная|26 апреля 2018|200|300Великолепная
      Дата выхода: 26 апреля 2018
    • 1110934|Золушка|28 апреля 2018|200|300Золушка
      Дата выхода: 28 апреля 2018
    • 1115701|МУЛЬТ в кино. Выпуск №74. Планета Май!|28 апреля 2018|200|300МУЛЬТ в кино. Выпуск №74. Планета Май!
      Дата выхода: 28 апреля 2018
    • 928533|Папа-мама гусь|1 мая 2018|200|300Папа-мама гусь
      Дата выхода: 1 мая 2018
    • 843649|Мстители: Война бесконечности|3 мая 2018|200|300Мстители: Война бесконечности
      Дата выхода: 3 мая 2018
    • 939785|Остров собак|3 мая 2018|200|300Остров собак
      Дата выхода: 3 мая 2018
    • 905031|Собибор|3 мая 2018|200|300Собибор
      Дата выхода: 3 мая 2018
    Вверх