• Игры для PS3
  • Игры для XBOX360
  • Игры для PC
  • Игры для PS2
  • Игры для PSP
  • Для телефонов
  • Музыка
  • Книги/Журналы
  • Обои
  •  
    Опрос
    Откуда Вы о нас узнали?
      0
    • От знакомых2,1,false,300,full
    • Из социальных сетей2,2,false,300,full
    • Из поисковых систем2,3,false,300,full
    • Другое2,4,false,300,full
    Статистика
    Загрузка...
    Крестный отец: Трилогия / The Godfather: Trilogy | BDRip 1080p
    Статус  Проверено
    В закладки
    Модератор: Max

    Крестный отец: Трилогия / The Godfather: Trilogy | BDRip 1080p [Фильмы 1972-1990] скачать торрентом/torrent бесплатно

    Год выхода
    Категории
    Язык
    Закачал
    Max | 16 апреля в 11ч 51м 54с
    Раздел
    Отзывов
    0
    Раздают: 1 Качают: 9 Скачали: 1 Размер: 46.19 GB
    Инфо о раздаче | Благодарности |
    0/5
    0
    0 5 0
    Поддержи нас — расскажи друзьям!
    Orbitum
    Новый интернет-браузер Быстрее загружает сайты Экономит интернет—трафик Меняет оформление страницы ВК Блокирует всю рекламу на сайтах Загружает торренты как

    µTorrent

    клиент
    Объеденяет все твои чаты из соц. сетей в один Проигрывает твою музыку не заходя во ВКонтакте
    Скачать и многое другое... Подробности на сайте производителя
    Название: Крестный отец: Трилогия
    Оригинальное название: The Godfather: Trilogy
    Год выхода: 1972 / 1974 / 1990
    Жанр: Драма, криминал

    Режиссер: Фрэнсис Форд Коппола

    В ролях: Марлон Брандо, Аль Пачино, Джеймс Каан, Роберт Де Ниро, Роберт Дювалл, Ли Страсберг, Майкл В. Гаццо, Ричард С. Кастеллано, Дайан Китон, Энди Гарсиа, Эли Уоллах, Джо Мантенья, София Коппола, Фрэнк Д’Амброзио, Джордж Хэмилтон, Бриджит Фонда, Талия Шайр, Джон Казале, Аль Леттьери, Стерлинг Хейден, Джон Марли, Ричард Конте, Эйб Вигода, Джанни Руссо, Руди Бонд, Аль Мартино, Моргана Кинг, Ленни Монтана, Джон Мартино, Сальваторе Корситто, Ричард Брайт, Алекс Рокко, Тони Джорджо, Вито Скотти, Тере Ливрано, Виктор Рендина, Джинни Линеро, Джули Грегг, Арделл Шеридан, Симонетта Стефанелли, Анджело Ин

    О фильме: Криминальная сага, повествующая о нью-йоркской сицилийской мафиозной семье Корлеоне. Этот фильм был признан значительным в США и во всём мире. Режиссура Копполы, в сочетании с игрой выдающихся актёров и прекрасным сценарием, обеспечила фильму успех и среди кинокритиков, и среди простых зрителей. Можно сказать, что в фильме присутствует много насилия, однако в данном случае это лишь художественное средство для отражения режиссёрского видения и для создания соответствующей атмосферы в фильме. Основной же драматизм фильма заключается в трагедии Майкла Корлеоне - молодого человека, героя войны, жизнь и даже душа которого оказывается сломлена под давлением собственной ответственности, власти и интересов семьи. Его превращение в жестокого и коварного босса являет собой одну из самых искусно показанных метаморфоз в истории мирового кинематографа.

    Страна: США, Paramount Pictures
    Продолжительность: 02:57:09, 03:22:36, 02:50:15
    Перевод: Дублированный, профессиональный многоголосый, профессиональный двухголосый, авторский

    Крестный отец / The Godfather (1972) BDRip 1080p
    [img]http://img10.lostpic.net/2016/04/25/d0cbda9f6b257dcd1287c4f6f17e5973.jpg[/img]Название: Крёстный отец  
    Оригинальное название: The Godfather
    Год выхода: 1972
    Жанр: Драма, криминал

    Режиссер: Фрэнсис Форд Коппола

    В ролях: Марлон Брандо, Аль Пачино, Джеймс Каан, Дайан Китон, Роберт Дювалл, Талия Шайр, Джон Казале, Ричард С. Кастеллано, Стерлинг Хейден, Джон Марли, Ричард Конте, Аль Леттьери, Эйб Вигода, Джанни Руссо, Руди Бонд, Аль Мартино, Моргана Кинг, Ленни Монтана, Джон Мартино, Сальваторе Корситто, Ричард Брайт, Алекс Рокко, Тони Джорджо, Вито Скотти, Тере Ливрано, Виктор Рендина, Джинни Линеро, Джули Грегг, Арделл Шеридан, Симонетта Стефанелли

    О фильме: Глава семьи, Дон Вито Корлеоне, выдаёт замуж свою дочь. В это время со Второй мировой войны возвращается его любимый сын Майкл. Майкл, герой войны, гордость семьи, не выражает желания заняться жестоким семейным бизнесом. Дон Корлеоне ведёт дела по старым правилам, но наступают иные времена, и появляются люди, желающие изменить сложившиеся порядки. На Дона Корлеоне совершается покушение. Он выживает, но временно теряет возможность управлять делами семьи. Благополучие и даже выживание семьи поставлено под угрозу. И здесь Майклу приходится вмешаться. Ради семьи он совершает двойное убийство, что вынуждает его некоторое время скрываться в Италии. Там он женится, но при покушении на него погибает его молодая жена. Майкл возвращается в Нью-Йорк и всерьёз начинает заниматься делами семьи, сам становясь в итоге её главой...

    [img]http://www.kinopoisk.ru/rating/325.gif[/img]

    Страна: США, Paramount Pictures
    Продолжительность: 02:57:09
    Перевод: Дублированный, профессиональный многоголосый, профессиональный двухголосый, авторский

    Качество: BDRip 1080p
    Видео: MPEG-4 AVC, 9108 Кбит/с, 1920x1080, 23.976 кадр/с
    Аудио #1: (AC3, 6 ch, 384 Кбит/с) Профессиональный (дублированный) Нева Фильм
    Аудио #2: (AC3, 6 ch, 448 Кбит/с) Профессиональный (многоголосый, закадровый) R5 - лицензия / Universal Pictures Rus
    Аудио #3: (AC3, 6 ch, 448 Кбит/с) Профессиональный (многоголосый, закадровый) Киномания
    Аудио #4: (AC3, 6 ch, 384 Кбит/с) Профессиональный (многоголосый, закадровый) Позитив
    Аудио #5: (AC3, 2 ch, 192 Кбит/с) Профессиональный (двухголосый, закадровый) Премьер Видео с лицензионной VHS. Роли озвучивали Игорь Тарадайкин и Наталья Гурзо.
    Аудио #6: (AC3, 6 ch, 448 Кбит/с) Авторский (одноголосый, закадровый) Юрий Живов
    Аудио #7: (AC3, 6 ch, 448 Кбит/с) Авторский (одноголосый, закадровый) Юрий Сербин
    Аудио #8: (AC3, 6 ch, 448 Кбит/с) Английский

    Cубтитры: Русские (полные: Киномания, Позитив), форсированные (на итальянскую речь (для дубляжа и многоголоски - R5), английские (полные, SDH)

    [spoiler=Скриншоты][img]http://lostpix.com/img/2018-04/14/wdsh3nfsq4p8p34kqw9aft3dn.jpg[/img][img]http://lostpix.com/img/2018-04/14/i42ptosbvlp146uj4abxlsjsp.jpg[/img][img]http://lostpix.com/img/2018-04/14/3ksft29lgsztla0c56xdyxfl0.jpg[/img][img]http://lostpix.com/img/2018-04/14/yvihbrtgbkfnrydgioghrbcfe.jpg[/img][img]http://lostpix.com/img/2018-04/14/ly5jhz3qsvcnsw6tctsiwfq2p.jpg[/img][img]http://lostpix.com/img/2018-04/14/1ga4szx27mun5gqiz95us8ebf.jpg[/img][img]http://lostpix.com/img/2018-04/14/1xkho18v1dqn6n1p1vwh4lfx6.jpg[/img][img]http://lostpix.com/img/2018-04/14/xuayz1ma8216nrvq80mkz3bko.jpg[/img]

    [spoiler=Инфо-файл]General
    Unique ID                      : 241025462298382474259596496118712270702 (0xB553D0C5EB94B152AD6ED6759E2A7F6E)
    Complete name                  : G:HD VideoКрёстный.отец.Трилогия.BDRip.1080рКрёстный.отец.1972.BDRip.1080р.ДБ.3хПМ.ПД.2хАП.mkv
    Format                         : Matroska
    Format version                 : Version 2
    File size                      : 15.2 GiB
    Duration                       : 2 h 57 min
    Overall bit rate               : 12.3 Mb/s
    Movie name                     : Крестный отец / The Godfather: Part I (1972)
    Encoded date                   : UTC 2018-04-13 20:07:46
    Writing application            : mkvmerge v4.1.1 ("Bouncin" Back") сборка от Jul  3 2010 22:54:08
    Writing library                : libebml v1.0.0 + libmatroska v1.0.0

    Video
    ID                             : 1
    Format                         : AVC
    Format/Info                    : Advanced Video Codec
    Format profile                 : High@L4.1
    Format settings                : CABAC / 4 Ref Frames
    Format settings, CABAC         : Yes
    Format settings, ReFrames      : 4 frames
    Codec ID                       : V_MPEG4/ISO/AVC
    Duration                       : 2 h 57 min
    Bit rate                       : 9 108 kb/s
    Width                          : 1 920 pixels
    Height                         : 1 080 pixels
    Display aspect ratio           : 16:9
    Frame rate mode                : Constant
    Frame rate                     : 23.976 (24000/1001) FPS
    Color space                    : YUV
    Chroma subsampling             : 4:2:0
    Bit depth                      : 8 bits
    Scan type                      : Progressive
    Bits/(Pixel*Frame)             : 0.183
    Stream size                    : 11.0 GiB (72%)
    Title                          : Release by N1NT3NDO
    Writing library                : x264 core 130 r2273 b3065e6
    Encoding settings              : cabac=1 / ref=4 / deblock=1:0:0 / analyse=0x3:0x113 / me=umh / subme=10 / psy=1 / psy_rd=1.00:0.00 / mixed_ref=1 / me_range=32 / chroma_me=1 / trellis=2 / 8x8dct=1 / cqm=0 / deadzone=21,11 / fast_pskip=0 / chroma_qp_offset=-2 / threads=12 / lookahead_threads=1 / sliced_threads=0 / nr=0 / decimate=0 / interlaced=0 / bluray_compat=0 / constrained_intra=0 / bframes=5 / b_pyramid=2 / b_adapt=2 / b_bias=0 / direct=2 / weightb=1 / open_gop=0 / weightp=2 / keyint=240 / keyint_min=23 / scenecut=40 / intra_refresh=0 / rc=2pass / mbtree=0 / bitrate=9108 / ratetol=1.0 / qcomp=0.60 / qpmin=0 / qpmax=69 / qpstep=4 / cplxblur=20.0 / qblur=0.5 / ip_ratio=1.40 / pb_ratio=1.30 / aq=1:0.70
    Language                       : English
    Default                        : Yes
    Forced                         : No

    Audio #1
    ID                             : 2
    Format                         : AC-3
    Format/Info                    : Audio Coding 3
    Muxing mode                    : Header stripping
    Codec ID                       : A_AC3
    Duration                       : 2 h 57 min
    Bit rate mode                  : Constant
    Bit rate                       : 384 kb/s
    Channel(s)                     : 6 channels
    Channel positions              : Front: L C R, Side: L R, LFE
    Sampling rate                  : 48.0 kHz
    Frame rate                     : 31.250 FPS (1536 SPF)
    Bit depth                      : 16 bits
    Compression mode               : Lossy
    Stream size                    : 487 MiB (3%)
    Title                          : Дублированный - Нева Фильм
    Language                       : Russian
    Service kind                   : Complete Main
    Default                        : Yes
    Forced                         : No

    Audio #2
    ID                             : 3
    Format                         : AC-3
    Format/Info                    : Audio Coding 3
    Muxing mode                    : Header stripping
    Codec ID                       : A_AC3
    Duration                       : 2 h 57 min
    Bit rate mode                  : Constant
    Bit rate                       : 448 kb/s
    Channel(s)                     : 6 channels
    Channel positions              : Front: L C R, Side: L R, LFE
    Sampling rate                  : 48.0 kHz
    Frame rate                     : 31.250 FPS (1536 SPF)
    Bit depth                      : 16 bits
    Compression mode               : Lossy
    Stream size                    : 568 MiB (4%)
    Title                          : Многоголосый - R5 - лицензия / Universal Pictures Rus
    Language                       : Russian
    Service kind                   : Complete Main
    Default                        : No
    Forced                         : No

    Audio #3
    ID                             : 4
    Format                         : AC-3
    Format/Info                    : Audio Coding 3
    Muxing mode                    : Header stripping
    Codec ID                       : A_AC3
    Duration                       : 2 h 57 min
    Bit rate mode                  : Constant
    Bit rate                       : 448 kb/s
    Channel(s)                     : 6 channels
    Channel positions              : Front: L C R, Side: L R, LFE
    Sampling rate                  : 48.0 kHz
    Frame rate                     : 31.250 FPS (1536 SPF)
    Bit depth                      : 16 bits
    Compression mode               : Lossy
    Stream size                    : 568 MiB (4%)
    Title                          : Многоголосый - Киномания
    Language                       : Russian
    Service kind                   : Complete Main
    Default                        : No
    Forced                         : No

    Audio #4
    ID                             : 5
    Format                         : AC-3
    Format/Info                    : Audio Coding 3
    Muxing mode                    : Header stripping
    Codec ID                       : A_AC3
    Duration                       : 2 h 57 min
    Bit rate mode                  : Constant
    Bit rate                       : 384 kb/s
    Channel(s)                     : 6 channels
    Channel positions              : Front: L C R, Side: L R, LFE
    Sampling rate                  : 48.0 kHz
    Frame rate                     : 31.250 FPS (1536 SPF)
    Bit depth                      : 16 bits
    Compression mode               : Lossy
    Stream size                    : 487 MiB (3%)
    Title                          : Многоголосый - Позитив
    Language                       : Russian
    Service kind                   : Complete Main
    Default                        : No
    Forced                         : No

    Audio #5
    ID                             : 6
    Format                         : AC-3
    Format/Info                    : Audio Coding 3
    Muxing mode                    : Header stripping
    Codec ID                       : A_AC3
    Duration                       : 2 h 57 min
    Bit rate mode                  : Constant
    Bit rate                       : 192 kb/s
    Channel(s)                     : 2 channels
    Channel positions              : Front: L R
    Sampling rate                  : 48.0 kHz
    Frame rate                     : 31.250 FPS (1536 SPF)
    Bit depth                      : 16 bits
    Compression mode               : Lossy
    Stream size                    : 243 MiB (2%)
    Title                          : Двухголосый - Премьер-Видео
    Language                       : Russian
    Service kind                   : Complete Main
    Default                        : No
    Forced                         : No

    Audio #6
    ID                             : 7
    Format                         : AC-3
    Format/Info                    : Audio Coding 3
    Muxing mode                    : Header stripping
    Codec ID                       : A_AC3
    Duration                       : 2 h 57 min
    Bit rate mode                  : Constant
    Bit rate                       : 448 kb/s
    Channel(s)                     : 6 channels
    Channel positions              : Front: L C R, Side: L R, LFE
    Sampling rate                  : 48.0 kHz
    Frame rate                     : 31.250 FPS (1536 SPF)
    Bit depth                      : 16 bits
    Compression mode               : Lossy
    Stream size                    : 568 MiB (4%)
    Title                          : Авторский - Юрий Живов
    Language                       : Russian
    Service kind                   : Complete Main
    Default                        : No
    Forced                         : No

    Audio #7
    ID                             : 8
    Format                         : AC-3
    Format/Info                    : Audio Coding 3
    Muxing mode                    : Header stripping
    Codec ID                       : A_AC3
    Duration                       : 2 h 57 min
    Bit rate mode                  : Constant
    Bit rate                       : 448 kb/s
    Channel(s)                     : 6 channels
    Channel positions              : Front: L C R, Side: L R, LFE
    Sampling rate                  : 48.0 kHz
    Frame rate                     : 31.250 FPS (1536 SPF)
    Bit depth                      : 16 bits
    Compression mode               : Lossy
    Stream size                    : 568 MiB (4%)
    Title                          : Авторский - Юрий Сербин
    Language                       : Russian
    Service kind                   : Complete Main
    Default                        : No
    Forced                         : No

    Audio #8
    ID                             : 9
    Format                         : AC-3
    Format/Info                    : Audio Coding 3
    Muxing mode                    : Header stripping
    Codec ID                       : A_AC3
    Duration                       : 2 h 57 min
    Bit rate mode                  : Constant
    Bit rate                       : 448 kb/s
    Channel(s)                     : 6 channels
    Channel positions              : Front: L C R, Side: L R, LFE
    Sampling rate                  : 48.0 kHz
    Frame rate                     : 31.250 FPS (1536 SPF)
    Bit depth                      : 16 bits
    Compression mode               : Lossy
    Stream size                    : 568 MiB (4%)
    Title                          : Английский
    Language                       : English
    Service kind                   : Complete Main
    Default                        : No
    Forced                         : No

    Text #1
    ID                             : 10
    Format                         : UTF-8
    Codec ID                       : S_TEXT/UTF8
    Codec ID/Info                  : UTF-8 Plain Text
    Title                          : на итальянскую речь
    Language                       : Russian
    Default                        : Yes
    Forced                         : No

    Text #2
    ID                             : 11
    Format                         : UTF-8
    Codec ID                       : S_TEXT/UTF8
    Codec ID/Info                  : UTF-8 Plain Text
    Title                          : на итальянскую речь для многоголоски R5
    Language                       : Russian
    Default                        : No
    Forced                         : No

    Text #3
    ID                             : 12
    Format                         : UTF-8
    Codec ID                       : S_TEXT/UTF8
    Codec ID/Info                  : UTF-8 Plain Text
    Title                          : Киномания
    Language                       : Russian
    Default                        : No
    Forced                         : No

    Text #4
    ID                             : 13
    Format                         : UTF-8
    Codec ID                       : S_TEXT/UTF8
    Codec ID/Info                  : UTF-8 Plain Text
    Title                          : Позитив
    Language                       : Russian
    Default                        : No
    Forced                         : No

    Text #5
    ID                             : 14
    Format                         : UTF-8
    Codec ID                       : S_TEXT/UTF8
    Codec ID/Info                  : UTF-8 Plain Text
    Language                       : English
    Default                        : No
    Forced                         : No

    Text #6
    ID                             : 15
    Format                         : UTF-8
    Codec ID                       : S_TEXT/UTF8
    Codec ID/Info                  : UTF-8 Plain Text
    Title                          : SDH
    Language                       : English
    Default                        : No
    Forced                         : No

    Menu
    00:00:00.000                   : :Chapter 01
    00:07:30.783                   : :Chapter 02
    00:18:03.624                   : :Chapter 03
    00:27:03.455                   : :Chapter 04
    00:34:20.183                   : :Chapter 05
    00:40:17.748                   : :Chapter 06
    00:48:52.304                   : :Chapter 07
    00:58:18.328                   : :Chapter 08
    01:08:44.578                   : :Chapter 09
    01:15:49.002                   : :Chapter 10
    01:30:00.686                   : :Chapter 11
    01:37:06.862                   : :Chapter 12
    01:46:18.163                   : :Chapter 13
    01:49:30.188                   : :Chapter 14
    01:53:57.664                   : :Chapter 15
    02:03:21.310                   : :Chapter 16
    02:06:37.256                   : :Chapter 17
    02:13:28.125                   : :Chapter 18
    02:19:47.462                   : :Chapter 19
    02:25:56.706                   : :Chapter 20
    02:36:56.031                   : :Chapter 21
    02:44:43.540                   : :Chapter 22
    02:53:05.750                   : :Chapter 23


    Крёстный отец 2 / The Godfather: Part II (1974) BDRip 1080p
    [img]http://img10.lostpic.net/2016/04/25/1b671f9d5c1a7952897e02c15af42a8a.jpg[/img]Название: Крёстный отец 2
    Оригинальное название: The Godfather: Part II
    Год выхода: 1974
    Жанр: Драма, криминал

    Режиссер: Фрэнсис Форд Коппола

    В ролях: Аль Пачино, Роберт Де Ниро, Дайан Китон, Роберт Дювалл, Джон Казале, Талия Шайр, Ли Страсберг, Майкл В. Гаццо, Г.Д. Спрэдлин, Ричард Брайт, Гастоне Москин, Том Роски, Бруно Кёрби, Фрэнк Сиверо, Франческа Де Сапио, Моргана Кинг, Марианна Хилл, Леопольдо Триесте, Доминик Кьянезе, Америго Тот, Трой Донахью, Джон Эпри, Джо Спинелл, Джеймс Каан, Эйб Вигода, Тере Ливрано, Джанни Руссо, Мария Карта, Оресте Бальдини, Джузеппе Силлато, Марио Котоне, Джеймс Гоунарис, Фэй Спэйн, Гарри Дин Стэнтон, Дэвид Бэйкер, Кармине Кариди, Дэнни Айелло, Кармине Фореста, Ник Диченца, Фазер Джозеф Меделья, Уильям Бауэрс, Джозеф Дэлла Сорт

    О фильме: В центре драмы представители нового поколения гангстерского клана — дона Корлеоне и его сына, для которых не существует моральных преград на пути достижения поставленных целей. Они превращают мафию, построенную по патриархальным, еще сицилийским законам, в весьма прагматичную, жесткую корпорацию, плавно интегрирующуюся в большой бизнес Америки.

    [img]http://www.kinopoisk.ru/rating/327.gif[/img]

    Страна: США, Paramount Pictures
    Продолжительность: 03:22:36
    Перевод: Дублированный, профессиональный многоголосый, профессиональный двухголосый, авторский

    Качество: BDRip 1080p
    Видео: MPEG-4 AVC, 7959 Кбит/с, 1920x1080, 23.976 кадр/с
    Аудио #1: (AC3, 6 ch, 384 Кбит/с) Профессиональный (дублированный) Нева Фильм
    Аудио #2: (AC3, 6 ch, 448 Кбит/с) Профессиональный (многоголосый, закадровый) R5 - лицензия / Universal Pictures Rus
    Аудио #3: (AC3, 6 ch, 448 Кбит/с) Профессиональный (многоголосый, закадровый) Киномания
    Аудио #4: (AC3, 6 ch, 448 Кбит/с) Профессиональный (многоголосый, закадровый) Позитив
    Аудио #5: (AC3, 2 ch, 192 Кбит/с) Профессиональный (двухголосый, закадровый) Премьер Видео с лицензионной VHS. Роли озвучивали Игорь Тарадайкин и Наталья Гурзо.
    Аудио #6: (AC3, 6 ch, 448 Кбит/с) Авторский (одноголосый, закадровый) Юрий Живов
    Аудио #7: (AC3, 6 ch, 448 Кбит/с) Авторский (одноголосый, закадровый) Юрий Сербин
    Аудио #8: (AC3, 6 ch, 448 Кбит/с) Английский

    Cубтитры: Русские (полные: Киномания, Позитив), форсированные (на итальянскую речь (для дубляжа и многоголоски - R5), английские (полные, SDH)

    [spoiler=Скриншоты][img]http://lostpix.com/img/2018-04/14/dlxhbuqiwrnpim3ate2kvbag8.jpg[/img][img]http://lostpix.com/img/2018-04/14/h6a9pjb27i3qzachnspzkqjph.jpg[/img][img]http://lostpix.com/img/2018-04/14/ubjvhg3dg1tp3klbc31c68qnf.jpg[/img][img]http://lostpix.com/img/2018-04/14/y4pdb0ekumqnpxd0c7jo8mhyo.jpg[/img][img]http://lostpix.com/img/2018-04/14/mwsiqm1k5uqxgtk3zwf4rlm34.jpg[/img][img]http://lostpix.com/img/2018-04/14/7krcico5vwl8nv39bpev17kmc.jpg[/img][img]http://lostpix.com/img/2018-04/14/d4npwhl7ynf23anplk47d28t6.jpg[/img][img]http://lostpix.com/img/2018-04/14/sj34v67pjmbqy9fce85ekjpvc.jpg[/img]

    [spoiler=Инфо-файл]General
    Unique ID                      : 186957578026390310394991971456927501979 (0x8CA6B843D65400F7A7D317FD59258E9B)
    Complete name                  : G:HD VideoКрёстный.отец.Трилогия.BDRip.1080рКрёстный.отец.2.1974.BDRip.1080р.ДБ.3хПМ.ПД.2хАП.mkv
    Format                         : Matroska
    Format version                 : Version 2
    File size                      : 15.8 GiB
    Duration                       : 3 h 22 min
    Overall bit rate               : 11.2 Mb/s
    Movie name                     : Крестный отец / The Godfather: Part I (1972)
    Encoded date                   : UTC 2018-04-13 20:38:59
    Writing application            : mkvmerge v4.1.1 ("Bouncin" Back") сборка от Jul  3 2010 22:54:08
    Writing library                : libebml v1.0.0 + libmatroska v1.0.0

    Video
    ID                             : 1
    Format                         : AVC
    Format/Info                    : Advanced Video Codec
    Format profile                 : High@L4.1
    Format settings                : CABAC / 4 Ref Frames
    Format settings, CABAC         : Yes
    Format settings, ReFrames      : 4 frames
    Codec ID                       : V_MPEG4/ISO/AVC
    Duration                       : 3 h 22 min
    Bit rate                       : 7 959 kb/s
    Width                          : 1 920 pixels
    Height                         : 1 080 pixels
    Display aspect ratio           : 16:9
    Frame rate mode                : Constant
    Frame rate                     : 23.976 (24000/1001) FPS
    Color space                    : YUV
    Chroma subsampling             : 4:2:0
    Bit depth                      : 8 bits
    Scan type                      : Progressive
    Bits/(Pixel*Frame)             : 0.160
    Stream size                    : 10.9 GiB (69%)
    Title                          : Release by N1NT3NDO
    Writing library                : x264 core 130 r2273 b3065e6
    Encoding settings              : cabac=1 / ref=4 / deblock=1:0:0 / analyse=0x3:0x113 / me=umh / subme=10 / psy=1 / psy_rd=1.00:0.00 / mixed_ref=1 / me_range=32 / chroma_me=1 / trellis=2 / 8x8dct=1 / cqm=0 / deadzone=21,11 / fast_pskip=0 / chroma_qp_offset=-2 / threads=12 / lookahead_threads=1 / sliced_threads=0 / nr=0 / decimate=0 / interlaced=0 / bluray_compat=0 / constrained_intra=0 / bframes=5 / b_pyramid=2 / b_adapt=2 / b_bias=0 / direct=2 / weightb=1 / open_gop=0 / weightp=2 / keyint=240 / keyint_min=23 / scenecut=40 / intra_refresh=0 / rc=2pass / mbtree=0 / bitrate=7959 / ratetol=1.0 / qcomp=0.60 / qpmin=0 / qpmax=69 / qpstep=4 / cplxblur=20.0 / qblur=0.5 / ip_ratio=1.40 / pb_ratio=1.30 / aq=1:0.70
    Language                       : English
    Default                        : Yes
    Forced                         : No

    Audio #1
    ID                             : 2
    Format                         : AC-3
    Format/Info                    : Audio Coding 3
    Muxing mode                    : Header stripping
    Codec ID                       : A_AC3
    Duration                       : 3 h 22 min
    Bit rate mode                  : Constant
    Bit rate                       : 384 kb/s
    Channel(s)                     : 6 channels
    Channel positions              : Front: L C R, Side: L R, LFE
    Sampling rate                  : 48.0 kHz
    Frame rate                     : 31.250 FPS (1536 SPF)
    Bit depth                      : 16 bits
    Compression mode               : Lossy
    Stream size                    : 557 MiB (3%)
    Title                          : Дублированный - Нева Фильм
    Language                       : Russian
    Service kind                   : Complete Main
    Default                        : Yes
    Forced                         : No

    Audio #2
    ID                             : 3
    Format                         : AC-3
    Format/Info                    : Audio Coding 3
    Muxing mode                    : Header stripping
    Codec ID                       : A_AC3
    Duration                       : 3 h 22 min
    Bit rate mode                  : Constant
    Bit rate                       : 448 kb/s
    Channel(s)                     : 6 channels
    Channel positions              : Front: L C R, Side: L R, LFE
    Sampling rate                  : 48.0 kHz
    Frame rate                     : 31.250 FPS (1536 SPF)
    Bit depth                      : 16 bits
    Compression mode               : Lossy
    Stream size                    : 649 MiB (4%)
    Title                          : Многоголосый - R5 - лицензия / Universal Pictures Rus
    Language                       : Russian
    Service kind                   : Complete Main
    Default                        : No
    Forced                         : No

    Audio #3
    ID                             : 4
    Format                         : AC-3
    Format/Info                    : Audio Coding 3
    Muxing mode                    : Header stripping
    Codec ID                       : A_AC3
    Duration                       : 3 h 22 min
    Bit rate mode                  : Constant
    Bit rate                       : 448 kb/s
    Channel(s)                     : 6 channels
    Channel positions              : Front: L C R, Side: L R, LFE
    Sampling rate                  : 48.0 kHz
    Frame rate                     : 31.250 FPS (1536 SPF)
    Bit depth                      : 16 bits
    Compression mode               : Lossy
    Stream size                    : 649 MiB (4%)
    Title                          : Многоголосый - Киномания
    Language                       : Russian
    Service kind                   : Complete Main
    Default                        : No
    Forced                         : No

    Audio #4
    ID                             : 5
    Format                         : AC-3
    Format/Info                    : Audio Coding 3
    Muxing mode                    : Header stripping
    Codec ID                       : A_AC3
    Duration                       : 3 h 22 min
    Bit rate mode                  : Constant
    Bit rate                       : 448 kb/s
    Channel(s)                     : 6 channels
    Channel positions              : Front: L C R, Side: L R, LFE
    Sampling rate                  : 48.0 kHz
    Frame rate                     : 31.250 FPS (1536 SPF)
    Bit depth                      : 16 bits
    Compression mode               : Lossy
    Stream size                    : 649 MiB (4%)
    Title                          : Многоголосый - Позитив
    Language                       : Russian
    Service kind                   : Complete Main
    Default                        : No
    Forced                         : No

    Audio #5
    ID                             : 6
    Format                         : AC-3
    Format/Info                    : Audio Coding 3
    Muxing mode                    : Header stripping
    Codec ID                       : A_AC3
    Duration                       : 3 h 22 min
    Bit rate mode                  : Constant
    Bit rate                       : 192 kb/s
    Channel(s)                     : 2 channels
    Channel positions              : Front: L R
    Sampling rate                  : 48.0 kHz
    Frame rate                     : 31.250 FPS (1536 SPF)
    Bit depth                      : 16 bits
    Compression mode               : Lossy
    Stream size                    : 278 MiB (2%)
    Title                          : Двухголосый - Премьер-Видео
    Language                       : Russian
    Service kind                   : Complete Main
    Default                        : No
    Forced                         : No

    Audio #6
    ID                             : 7
    Format                         : AC-3
    Format/Info                    : Audio Coding 3
    Muxing mode                    : Header stripping
    Codec ID                       : A_AC3
    Duration                       : 3 h 22 min
    Bit rate mode                  : Constant
    Bit rate                       : 448 kb/s
    Channel(s)                     : 6 channels
    Channel positions              : Front: L C R, Side: L R, LFE
    Sampling rate                  : 48.0 kHz
    Frame rate                     : 31.250 FPS (1536 SPF)
    Bit depth                      : 16 bits
    Compression mode               : Lossy
    Stream size                    : 649 MiB (4%)
    Title                          : Авторский - Юрий Живов
    Language                       : Russian
    Service kind                   : Complete Main
    Default                        : No
    Forced                         : No

    Audio #7
    ID                             : 8
    Format                         : AC-3
    Format/Info                    : Audio Coding 3
    Muxing mode                    : Header stripping
    Codec ID                       : A_AC3
    Duration                       : 3 h 22 min
    Bit rate mode                  : Constant
    Bit rate                       : 448 kb/s
    Channel(s)                     : 6 channels
    Channel positions              : Front: L C R, Side: L R, LFE
    Sampling rate                  : 48.0 kHz
    Frame rate                     : 31.250 FPS (1536 SPF)
    Bit depth                      : 16 bits
    Compression mode               : Lossy
    Stream size                    : 649 MiB (4%)
    Title                          : Авторский - Юрий Сербин
    Language                       : Russian
    Service kind                   : Complete Main
    Default                        : No
    Forced                         : No

    Audio #8
    ID                             : 9
    Format                         : AC-3
    Format/Info                    : Audio Coding 3
    Muxing mode                    : Header stripping
    Codec ID                       : A_AC3
    Duration                       : 3 h 22 min
    Bit rate mode                  : Constant
    Bit rate                       : 448 kb/s
    Channel(s)                     : 6 channels
    Channel positions              : Front: L C R, Side: L R, LFE
    Sampling rate                  : 48.0 kHz
    Frame rate                     : 31.250 FPS (1536 SPF)
    Bit depth                      : 16 bits
    Compression mode               : Lossy
    Stream size                    : 649 MiB (4%)
    Title                          : Английский
    Language                       : English
    Service kind                   : Complete Main
    Default                        : No
    Forced                         : No

    Text #1
    ID                             : 10
    Format                         : UTF-8
    Codec ID                       : S_TEXT/UTF8
    Codec ID/Info                  : UTF-8 Plain Text
    Title                          : на итальянскую речь
    Language                       : Russian
    Default                        : Yes
    Forced                         : No

    Text #2
    ID                             : 11
    Format                         : UTF-8
    Codec ID                       : S_TEXT/UTF8
    Codec ID/Info                  : UTF-8 Plain Text
    Title                          : Киномания
    Language                       : Russian
    Default                        : No
    Forced                         : No

    Text #3
    ID                             : 12
    Format                         : UTF-8
    Codec ID                       : S_TEXT/UTF8
    Codec ID/Info                  : UTF-8 Plain Text
    Language                       : Russian
    Default                        : No
    Forced                         : No

    Text #4
    ID                             : 13
    Format                         : UTF-8
    Codec ID                       : S_TEXT/UTF8
    Codec ID/Info                  : UTF-8 Plain Text
    Language                       : English
    Default                        : No
    Forced                         : No

    Text #5
    ID                             : 14
    Format                         : UTF-8
    Codec ID                       : S_TEXT/UTF8
    Codec ID/Info                  : UTF-8 Plain Text
    Title                          : SDH
    Language                       : English
    Default                        : No
    Forced                         : No

    Menu
    00:00:00.000                   : :Chapter 01
    00:05:00.000                   : :Chapter 02
    00:10:00.000                   : :Chapter 03
    00:15:00.000                   : :Chapter 04
    00:20:00.000                   : :Chapter 05
    00:25:00.000                   : :Chapter 06
    00:30:00.000                   : :Chapter 07
    00:35:00.000                   : :Chapter 08
    00:40:00.000                   : :Chapter 09
    00:45:00.000                   : :Chapter 10
    00:50:00.000                   : :Chapter 11
    00:55:00.000                   : :Chapter 12
    01:00:00.000                   : :Chapter 13
    01:05:00.000                   : :Chapter 14
    01:10:00.000                   : :Chapter 15
    01:15:00.000                   : :Chapter 16
    01:20:00.000                   : :Chapter 17
    01:25:00.000                   : :Chapter 18
    01:30:00.000                   : :Chapter 19
    01:35:00.000                   : :Chapter 20
    01:40:00.000                   : :Chapter 21
    01:45:00.000                   : :Chapter 22
    01:50:00.000                   : :Chapter 23
    01:55:00.000                   : :Chapter 24
    02:00:00.000                   : :Chapter 25
    02:05:00.000                   : :Chapter 26
    02:10:00.000                   : :Chapter 27
    02:15:00.000                   : :Chapter 28
    02:20:00.000                   : :Chapter 29
    02:25:00.000                   : :Chapter 30
    02:30:00.000                   : :Chapter 31
    02:35:00.000                   : :Chapter 32
    02:40:00.000                   : :Chapter 33
    02:45:00.000                   : :Chapter 34
    02:50:00.000                   : :Chapter 35
    02:55:00.000                   : :Chapter 36
    03:00:00.000                   : :Chapter 37
    03:05:00.000                   : :Chapter 38
    03:10:00.000                   : :Chapter 39
    03:15:00.000                   : :Chapter 40
    03:20:00.000                   : :Chapter 41


    Крёстный отец 3 / The Godfather: Part III (1990) BDRip 1080p
    [img]http://img10.lostpic.net/2016/04/25/4849b7ee5d0147b398ad9ddb06741a72.jpg[/img]Название: Крёстный отец 3
    Оригинальное название: The Godfather: Part III
    Год выхода: 1990
    Жанр: Драма, криминал

    Режиссер: Фрэнсис Форд Коппола

    В ролях: Аль Пачино, Дайан Китон, Талия Шайр, Энди Гарсиа, Эли Уоллах, Джо Мантенья, Джордж Хэмилтон, Бриджит Фонда, София Коппола, Раф Валлоне, Фрэнк Д’Амброзио, Донал Доннелли, Ричард Брайт, Хельмут Бергер, Дон Новелло, Джон Сэвидж, Франко Читти, Марио Донатоне, Витторио Дузе, Энцо Робутти, Мишель Руссо, Аль Мартино, Роберт Чиккини, Карлос Миранда, Роберт Венто, Уилли Браун, Джинни Линеро, Ремо Ремотти, Тере Ливрано, Кармине Кариди, Дон Костильо, Аль Руссо, Микки Нокс, Рик Авилес, Майкл Боуэн, Бретт Хэлси, Габриэль Торрей, Джон Абинери, Брайан Фрейлино, Грегори Корсо, Марино Мазе, Дадо Располи, Валерия Сабел, Луиджи Лаэцца

    О фильме: Заключительная часть знаменитой гангстерской эпопеи, в которой продолжается рассказ о делах «семьи» дона Корлеоне. Через двадцать лет после событий, описанных в предыдущей картине, Майкл Корлеоне решает заняться легальным бизнесом. Однако противодействие внутри клана заставляет его вспомнить об испытанных кровавых методах общения с противником, что приводит к трагическому итогу.

    [img]http://www.kinopoisk.ru/rating/4500.gif[/img]

    Страна: США, Paramount Pictures
    Продолжительность: 02:50:15
    Перевод: Дублированный, профессиональный многоголосый, профессиональный двухголосый, авторский

    Качество: BDRip 1080p
    Видео: MPEG-4 AVC, 9484 Кбит/с, 1920x1080, 23.976 кадр/с
    Аудио #1: (AC3, 6 ch, 384 Кбит/с) Профессиональный (дублированный) Нева Фильм
    Аудио #2: (AC3, 6 ch, 448 Кбит/с) Профессиональный (многоголосый, закадровый) R5 - лицензия / Universal Pictures Rus
    Аудио #3: (AC3, 6 ch, 448 Кбит/с) Профессиональный (многоголосый, закадровый) Киномания
    Аудио #4: (AC3, 6 ch, 448 Кбит/с) Профессиональный (многоголосый, закадровый) Позитив
    Аудио #5: (AC3, 2 ch, 192 Кбит/с) Профессиональный (двухголосый, закадровый) Премьер Видео с лицензионной VHS. Роли озвучивали Игорь Тарадайкин и Наталья Гурзо.
    Аудио #6: (AC3, 6 ch, 448 Кбит/с) Авторский (одноголосый, закадровый) Юрий Живов
    Аудио #7: (AC3, 6 ch, 448 Кбит/с) Авторский (одноголосый, закадровый) Юрий Сербин
    Аудио #8: (AC3, 6 ch, 448 Кбит/с) Английский

    Cубтитры: Русские (полные: Киномания, Позитив), форсированные (на итальянскую речь (для дубляжа и многоголоски - R5), английские (полные, SDH)

    [spoiler=Скриншоты][img]http://lostpix.com/img/2018-04/14/bwi174m4v357getz2eosvsd08.jpg[/img][img]http://lostpix.com/img/2018-04/14/bqvrh4i9zckty7mt4sxniprw8.jpg[/img][img]http://lostpix.com/img/2018-04/14/cfbcsxya6si4ild30aes4xg7w.jpg[/img][img]http://lostpix.com/img/2018-04/14/ytu1yv41ylonlj6ucd6g6hana.jpg[/img][img]http://lostpix.com/img/2018-04/14/xuhtg6d2w2mpsb27odfjximtp.jpg[/img][img]http://lostpix.com/img/2018-04/14/iowi3x7m5qt1tknkx3yuycx5m.jpg[/img][img]http://lostpix.com/img/2018-04/14/ldy5s7jeb3bowr9naj1k7tdvd.jpg[/img][img]http://lostpix.com/img/2018-04/14/3x1x0b1y7jvfo1hg2w3iufi56.jpg[/img]

    [spoiler=Инфо-файл]General
    Unique ID                      : 204833773567001999173387414957808114953 (0x9A198CC0930CE1D8AB5A2ADA96C75D09)
    Complete name                  : G:HD VideoКрёстный.отец.Трилогия.BDRip.1080рКрёстный.отец.3.1990.BDRip.1080р.ДБ.3хПМ.ПД.2хАП.mkv
    Format                         : Matroska
    Format version                 : Version 2
    File size                      : 15.2 GiB
    Duration                       : 2 h 50 min
    Overall bit rate               : 12.7 Mb/s
    Movie name                     : Крестный отец 3 / The Godfather: Part III (1990)
    Encoded date                   : UTC 2018-04-13 21:20:41
    Writing application            : mkvmerge v4.1.1 ("Bouncin" Back") сборка от Jul  3 2010 22:54:08
    Writing library                : libebml v1.0.0 + libmatroska v1.0.0

    Video
    ID                             : 1
    Format                         : AVC
    Format/Info                    : Advanced Video Codec
    Format profile                 : High@L4.1
    Format settings                : CABAC / 4 Ref Frames
    Format settings, CABAC         : Yes
    Format settings, ReFrames      : 4 frames
    Codec ID                       : V_MPEG4/ISO/AVC
    Duration                       : 2 h 50 min
    Bit rate                       : 9 484 kb/s
    Width                          : 1 920 pixels
    Height                         : 1 080 pixels
    Display aspect ratio           : 16:9
    Frame rate mode                : Constant
    Frame rate                     : 23.976 (24000/1001) FPS
    Color space                    : YUV
    Chroma subsampling             : 4:2:0
    Bit depth                      : 8 bits
    Scan type                      : Progressive
    Bits/(Pixel*Frame)             : 0.191
    Stream size                    : 11.0 GiB (72%)
    Title                          : Release by N1NT3NDO
    Writing library                : x264 core 130 r2273 b3065e6
    Encoding settings              : cabac=1 / ref=4 / deblock=1:0:0 / analyse=0x3:0x113 / me=umh / subme=10 / psy=1 / psy_rd=1.00:0.00 / mixed_ref=1 / me_range=32 / chroma_me=1 / trellis=2 / 8x8dct=1 / cqm=0 / deadzone=21,11 / fast_pskip=0 / chroma_qp_offset=-2 / threads=12 / lookahead_threads=1 / sliced_threads=0 / nr=0 / decimate=0 / interlaced=0 / bluray_compat=0 / constrained_intra=0 / bframes=5 / b_pyramid=2 / b_adapt=2 / b_bias=0 / direct=2 / weightb=1 / open_gop=0 / weightp=2 / keyint=240 / keyint_min=23 / scenecut=40 / intra_refresh=0 / rc=2pass / mbtree=0 / bitrate=9484 / ratetol=1.0 / qcomp=0.60 / qpmin=0 / qpmax=69 / qpstep=4 / cplxblur=20.0 / qblur=0.5 / ip_ratio=1.40 / pb_ratio=1.30 / aq=1:0.70
    Language                       : English
    Default                        : Yes
    Forced                         : No

    Audio #1
    ID                             : 2
    Format                         : AC-3
    Format/Info                    : Audio Coding 3
    Muxing mode                    : Header stripping
    Codec ID                       : A_AC3
    Duration                       : 2 h 50 min
    Bit rate mode                  : Constant
    Bit rate                       : 384 kb/s
    Channel(s)                     : 6 channels
    Channel positions              : Front: L C R, Side: L R, LFE
    Sampling rate                  : 48.0 kHz
    Frame rate                     : 31.250 FPS (1536 SPF)
    Bit depth                      : 16 bits
    Compression mode               : Lossy
    Stream size                    : 468 MiB (3%)
    Title                          : Дублированный - Нева Фильм
    Language                       : Russian
    Service kind                   : Complete Main
    Default                        : Yes
    Forced                         : No

    Audio #2
    ID                             : 3
    Format                         : AC-3
    Format/Info                    : Audio Coding 3
    Muxing mode                    : Header stripping
    Codec ID                       : A_AC3
    Duration                       : 2 h 50 min
    Bit rate mode                  : Constant
    Bit rate                       : 448 kb/s
    Channel(s)                     : 6 channels
    Channel positions              : Front: L C R, Side: L R, LFE
    Sampling rate                  : 48.0 kHz
    Frame rate                     : 31.250 FPS (1536 SPF)
    Bit depth                      : 16 bits
    Compression mode               : Lossy
    Stream size                    : 546 MiB (4%)
    Title                          : Многоголосый - R5 - лицензия / Universal Pictures Rus
    Language                       : Russian
    Service kind                   : Complete Main
    Default                        : No
    Forced                         : No

    Audio #3
    ID                             : 4
    Format                         : AC-3
    Format/Info                    : Audio Coding 3
    Muxing mode                    : Header stripping
    Codec ID                       : A_AC3
    Duration                       : 2 h 50 min
    Bit rate mode                  : Constant
    Bit rate                       : 448 kb/s
    Channel(s)                     : 6 channels
    Channel positions              : Front: L C R, Side: L R, LFE
    Sampling rate                  : 48.0 kHz
    Frame rate                     : 31.250 FPS (1536 SPF)
    Bit depth                      : 16 bits
    Compression mode               : Lossy
    Stream size                    : 546 MiB (4%)
    Title                          : Многоголосый - Киномания
    Language                       : Russian
    Service kind                   : Complete Main
    Default                        : No
    Forced                         : No

    Audio #4
    ID                             : 5
    Format                         : AC-3
    Format/Info                    : Audio Coding 3
    Muxing mode                    : Header stripping
    Codec ID                       : A_AC3
    Duration                       : 2 h 50 min
    Bit rate mode                  : Constant
    Bit rate                       : 448 kb/s
    Channel(s)                     : 6 channels
    Channel positions              : Front: L C R, Side: L R, LFE
    Sampling rate                  : 48.0 kHz
    Frame rate                     : 31.250 FPS (1536 SPF)
    Bit depth                      : 16 bits
    Compression mode               : Lossy
    Stream size                    : 546 MiB (4%)
    Title                          : Многоголосый - Позитив
    Language                       : Russian
    Service kind                   : Complete Main
    Default                        : No
    Forced                         : No

    Audio #5
    ID                             : 6
    Format                         : AC-3
    Format/Info                    : Audio Coding 3
    Muxing mode                    : Header stripping
    Codec ID                       : A_AC3
    Duration                       : 2 h 50 min
    Bit rate mode                  : Constant
    Bit rate                       : 192 kb/s
    Channel(s)                     : 2 channels
    Channel positions              : Front: L R
    Sampling rate                  : 48.0 kHz
    Frame rate                     : 31.250 FPS (1536 SPF)
    Bit depth                      : 16 bits
    Compression mode               : Lossy
    Stream size                    : 234 MiB (2%)
    Title                          : Двухголосый - Премьер-Видео
    Language                       : Russian
    Service kind                   : Complete Main
    Default                        : No
    Forced                         : No

    Audio #6
    ID                             : 7
    Format                         : AC-3
    Format/Info                    : Audio Coding 3
    Muxing mode                    : Header stripping
    Codec ID                       : A_AC3
    Duration                       : 2 h 50 min
    Bit rate mode                  : Constant
    Bit rate                       : 448 kb/s
    Channel(s)                     : 6 channels
    Channel positions              : Front: L C R, Side: L R, LFE
    Sampling rate                  : 48.0 kHz
    Frame rate                     : 31.250 FPS (1536 SPF)
    Bit depth                      : 16 bits
    Compression mode               : Lossy
    Stream size                    : 546 MiB (4%)
    Title                          : Авторский - Юрий Живов
    Language                       : Russian
    Service kind                   : Complete Main
    Default                        : No
    Forced                         : No

    Audio #7
    ID                             : 8
    Format                         : AC-3
    Format/Info                    : Audio Coding 3
    Muxing mode                    : Header stripping
    Codec ID                       : A_AC3
    Duration                       : 2 h 50 min
    Bit rate mode                  : Constant
    Bit rate                       : 448 kb/s
    Channel(s)                     : 6 channels
    Channel positions              : Front: L C R, Side: L R, LFE
    Sampling rate                  : 48.0 kHz
    Frame rate                     : 31.250 FPS (1536 SPF)
    Bit depth                      : 16 bits
    Compression mode               : Lossy
    Stream size                    : 546 MiB (4%)
    Title                          : Авторский - Юрий Сербин
    Language                       : Russian
    Service kind                   : Complete Main
    Default                        : No
    Forced                         : No

    Audio #8
    ID                             : 9
    Format                         : AC-3
    Format/Info                    : Audio Coding 3
    Muxing mode                    : Header stripping
    Codec ID                       : A_AC3
    Duration                       : 2 h 50 min
    Bit rate mode                  : Constant
    Bit rate                       : 448 kb/s
    Channel(s)                     : 6 channels
    Channel positions              : Front: L C R, Side: L R, LFE
    Sampling rate                  : 48.0 kHz
    Frame rate                     : 31.250 FPS (1536 SPF)
    Bit depth                      : 16 bits
    Compression mode               : Lossy
    Stream size                    : 546 MiB (4%)
    Title                          : Английский
    Language                       : Russian
    Service kind                   : Complete Main
    Default                        : No
    Forced                         : No

    Text #1
    ID                             : 10
    Format                         : UTF-8
    Codec ID                       : S_TEXT/UTF8
    Codec ID/Info                  : UTF-8 Plain Text
    Title                          : на итальянскую речь
    Language                       : Russian
    Default                        : Yes
    Forced                         : No

    Text #2
    ID                             : 11
    Format                         : UTF-8
    Codec ID                       : S_TEXT/UTF8
    Codec ID/Info                  : UTF-8 Plain Text
    Title                          : Киномания
    Language                       : Russian
    Default                        : No
    Forced                         : No

    Text #3
    ID                             : 12
    Format                         : UTF-8
    Codec ID                       : S_TEXT/UTF8
    Codec ID/Info                  : UTF-8 Plain Text
    Language                       : Russian
    Default                        : No
    Forced                         : No

    Text #4
    ID                             : 13
    Format                         : UTF-8
    Codec ID                       : S_TEXT/UTF8
    Codec ID/Info                  : UTF-8 Plain Text
    Language                       : English
    Default                        : No
    Forced                         : No

    Text #5
    ID                             : 14
    Format                         : UTF-8
    Codec ID                       : S_TEXT/UTF8
    Codec ID/Info                  : UTF-8 Plain Text
    Title                          : SDH
    Language                       : English
    Default                        : No
    Forced                         : No

    Menu
    00:00:00.000                   : :Chapter 01
    00:05:00.000                   : :Chapter 02
    00:10:00.000                   : :Chapter 03
    00:15:00.000                   : :Chapter 04
    00:20:00.000                   : :Chapter 05
    00:25:00.000                   : :Chapter 06
    00:30:00.000                   : :Chapter 07
    00:35:00.000                   : :Chapter 08
    00:40:00.000                   : :Chapter 09
    00:45:00.000                   : :Chapter 10
    00:50:00.000                   : :Chapter 11
    00:55:00.000                   : :Chapter 12
    01:00:00.000                   : :Chapter 13
    01:05:00.000                   : :Chapter 14
    01:10:00.000                   : :Chapter 15
    01:15:00.000                   : :Chapter 16
    01:20:00.000                   : :Chapter 17
    01:25:00.000                   : :Chapter 18
    01:30:00.000                   : :Chapter 19
    01:35:00.000                   : :Chapter 20
    01:40:00.000                   : :Chapter 21
    01:45:00.000                   : :Chapter 22
    01:50:00.000                   : :Chapter 23
    01:55:00.000                   : :Chapter 24
    02:00:00.000                   : :Chapter 25
    02:05:00.000                   : :Chapter 26
    02:10:00.000                   : :Chapter 27
    02:15:00.000                   : :Chapter 28
    02:20:00.000                   : :Chapter 29
    02:25:00.000                   : :Chapter 30
    02:30:00.000                   : :Chapter 31
    02:35:00.000                   : :Chapter 32
    02:40:00.000                   : :Chapter 33
    02:45:00.000                   : :Chapter 34
    02:50:00.000                   : :Chapter 35



    Как скачать?
    1. Качаем UTorrent версии 2.0 и выше отсюда
    2. После установки, жмем на ссылку Скачать торрент.
    3. Открываем его через utorrent.
    4. Ждем пока подключатся участники.
    5. Качаем.


    Комментарии о Крестный отец: Трилогия / The Godfather: Trilogy | BDRip 1080p
    Добавлять комментарии могут только зарегистрированные пользователи

    Зарегистрироваться или Войти


    Ближайшее в кино
    • Тренер дата выхода 19 апреля 2018Тренер
      Дата выхода: 19 апреля 2018
    • 930555|Титан|19 апреля 2018|200|300Титан
      Дата выхода: 19 апреля 2018
    • 979129|Третья волна зомби|19 апреля 2018|200|300Третья волна зомби
      Дата выхода: 19 апреля 2018
    • 958501|Опасный бизнес|19 апреля 2018|200|300Опасный бизнес
      Дата выхода: 19 апреля 2018
    • 799482|Логово Монстра|19 апреля 2018|200|300Логово Монстра
      Дата выхода: 19 апреля 2018
    • 924167|Точка невозврата|19 апреля 2018|200|300Точка невозврата
      Дата выхода: 19 апреля 2018
    • 1103852|Укрась прощальное утро цветами обещания|19 апреля 2018|200|300Укрась прощальное утро цветами обещания
      Дата выхода: 19 апреля 2018
    • 845128|Я заберу твои деньги|19 апреля 2018|200|300Я заберу твои деньги
      Дата выхода: 19 апреля 2018
    • 1062316|Свинья|19 апреля 2018|200|300Свинья
      Дата выхода: 19 апреля 2018
    • 1075751|Фея|19 апреля 2018|200|300Фея
      Дата выхода: 19 апреля 2018
    • 1082597|Леонардо: Миссия Мона Лиза|19 апреля 2018|200|300Леонардо: Миссия Мона Лиза
      Дата выхода: 19 апреля 2018
    • 986511|Вествуд: Панк, икона, активист|19 апреля 2018|200|300Вествуд: Панк, икона, активист
      Дата выхода: 19 апреля 2018
    • 1047724|Привидение|26 апреля 2018|200|300Привидение
      Дата выхода: 26 апреля 2018
    • 1045590|Правда или действие|26 апреля 2018|200|300Правда или действие
      Дата выхода: 26 апреля 2018
    • 841470|Смешарики. Дежавю|26 апреля 2018|200|300Смешарики. Дежавю
      Дата выхода: 26 апреля 2018
    Вверх