• Игры для PS4
  • Игры для PS3
  • Игры для XBOX360
  • Игры для PC
  • Игры для PS2
  • Игры для PSP
  • Для телефонов
  • Музыка
  • Книги / Журналы
  • Обои
  • Опрос
    Откуда Вы о нас узнали?
      0
    • От знакомых2,1,false,300,full
    • Из социальных сетей2,2,false,300,full
    • Из поисковых систем2,3,false,300,full
    • Другое2,4,false,300,full
    Статистика
    Всего онлайн -
    Гостей -
    Пользователей -
    Короли трекера
    Благодарности () Закрыть
    Исполнитель/Группа: Группа Кристалл
    Жанр:  Pop
    Год выпуска: 2018
    Продолжительность: 00:07:28

    Описание: Выступление Татьяны Кузьминой, Алевтины Бердниковой и группы "Кристалл" в Калининграде в рамках рыбацкого праздника "День селедки".Прозвучали песни Летние ночи и День рождения любви, автор музыки Виктор Могилатов(см.на постере), слова Эллы Герасименко.

    Формат: MKV
    Качество: CAMRip 1080p
    Видео кодек: H.264
    Аудио кодек: AAC
    Видео: H.264, ~5 600 Kbps, 1920 x 1080 (16:9), 29 fps
    Аудио: AAC, 48000Hz, 2ch, 192 kbps
    MedaInfo
    Complete name               : D:Kristall_14.04.18.mkv
    Format                      : Matroska
    Format version              : Version 4 / Version 2
    File size                   : 312 MiB
    Duration                    : 7 min 29 s
    Overall bit rate            : 5 822 kb/s
    Encoded date                : UTC 2018-04-16 08:28:10
    Writing application         : mkvmerge v8.3.0 ("Over the Horizon") 64bit
    Writing library             : libebml v1.3.1 + libmatroska v1.4.2

    Video
    ID                          : 1
    Format                      : AVC
    Format/Info                 : Advanced Video Codec
    Format profile              : Main@L4.1
    Format settings, CABAC      : Yes
    Format settings, ReFrames   : 4 frames
    Codec ID                    : V_MPEG4/ISO/AVC
    Duration                    : 7 min 28 s
    Bit rate                    : 5 631 kb/s
    Width                       : 1 920 pixels
    Height                      : 1 080 pixels
    Display aspect ratio        : 16:9
    Frame rate mode             : Constant
    Frame rate                  : 29.970 (30000/1001) FPS
    Standard                    : NTSC
    Color space                 : YUV
    Chroma subsampling          : 4:2:0
    Bit depth                   : 8 bits
    Scan type                   : Progressive
    Bits/(Pixel*Frame)          : 0.091
    Stream size                 : 301 MiB (97%)
    Language                    : English
    Default                     : Yes
    Forced                      : No
    Color range                 : Limited
    Color primaries             : BT.709
    Transfer characteristics    : BT.709
    Matrix coefficients         : BT.709

    Audio
    ID                          : 2
    Format                      : AAC
    Format/Info                 : Advanced Audio Codec
    Format profile              : LC
    Codec ID                    : A_AAC
    Duration                    : 7 min 29 s
    Bit rate                    : 192 kb/s
    Channel(s)                  : 2 channels
    Channel positions           : Front: L R
    Sampling rate               : 48.0 kHz
    Frame rate                  : 46.875 FPS (1024 spf)
    Compression mode            : Lossy
    Stream size                 : 10.1 MiB (3%)
    Language                    : English
    Default                     : Yes
    Forced                      : NoСвернуть


    Похожие раздачи Искать похожие
    Инструкция по скачиванию
     1  Качаем uTorrent версии 2.0 и выше
     2  После установки, жмем выше под постером на ссылку Скачать [MediaGet] или Скачать .torrent
     3  Открываем скачанный файл через соответствующий клиент: MediaGet или uTorrent
     4  Ждем пока подключатся участники
     5  Качаем
    Комментарии о  Группа Кристалл - Выступление в Калининграде на «Дне селедки» [14.04] 
    Ближайшее в кино
    Вверх