• Игры для PS4
  • Игры для PS3
  • Игры для XBOX360
  • Игры для PC
  • Игры для PS2
  • Игры для PSP
  • Для телефонов
  • Музыка
  • Книги / Журналы
  • Обои
  • Опрос
    Удобен ли сайт в использовании?
      0
    • Очень удобен, все понятно1,1,false,300,full
    • Удобен1,2,false,300,full
    • Средне1,3,false,300,full
    • Неудобен, трудно ориентироваться1,4,false,300,full
    • Совсем неудобен1,5,false,300,full
    Статистика
    Всего онлайн -
    Гостей -
    Пользователей -
    Короли трекера
    Благодарности () Закрыть
    Информация о фильме
    Название: Основатель
    Оригинальное название: The Founder
    Год выпуска: 2016
    Жанр:  драма, биография, история
    Режиссер: Джон Ли Хэнкок
    В ролях: Майкл Китон, Ник Офферман, Джон Кэрролл Линч, Линда Карделлини, Б.Дж. Новак, Лора Дерн, Джастин Брук (Fred Turner), Кэти Нилэнд (June Martino), Патрик Уилсон (Rollie Smith), Грифф Ферст (Jim Zien), Вилбур Фицджералд, Дэвид де Фриз (Jack Horford)

    О фильме: Фильм расскажет о жизни Рэя Крока, человека создавшего самую известную в мире сеть ресторанов быстрого обслуживания McDonald`s. К такому успеху стремится любой уважающий себя мужчина. Хотя большая часть в 52 года уже задумывается о пенсии при упадке сил, потере интереса к женщинам и невозможности изменить устоявшийся расклад в жизни. Только не Рэй Крок, который загорелся таким жгучим желанием при открытой им идее, что со временем она принесла ему астрономическую сумму денег. Он словно выпил эликсир молодости и с головой окунулся в воплощение пресловутой американской мечты... Основано на реальных событиях.



    MPAA: PG-13 - Детям до 13 лет просмотр не желателен

    Страна: США
    Студия: Faliro House Productions, FilmNation Entertainment, Speedie Distribution, The Combine
    Продолжительность: 01:55:19
    Перевод: Профессиональный (многоголосый, закадровый) AlexFilm + Профессиональный (многоголосый, закадровый) Jaskier + Авторский (одноголосый, закадровый) В.Дохалов + Авторский (одноголосый, закадровый) Д.Есарев + Авторский (одноголосый, закадровый) В.Назаров

    Файл
    Качество: BDRip 720p
    Формат: Matroska
    Видео: 1280x534 at 23.976 fps, x264, ~4163 kbps avg
    Аудио#1: Russian: 48 kHz, AC3, 3/2 (L,C,R,l,r) + LFE ch, ~640 kbps avg |Многоголосый закадровый, AlexFilm|
    Аудио#2: Russian: 48 kHz, AC3, 3/2 (L,C,R,l,r) + LFE ch, ~384 kbps avg |Многоголосый закадровый, Jaskier|
    Аудио#3: Russian: 48 kHz, AC3, 3/2 (L,C,R,l,r) + LFE ch, ~448 kbps avg |Авторский, В.Дохалов|
    Аудио#4: Russian: 48 kHz, AC3, 3/2 (L,C,R,l,r) + LFE ch, ~448 kbps avg |Авторский, Д.Есарев|
    Аудио#5: Russian: 48 kHz, AC3, 3/2 (L,C,R,l,r) + LFE ch, ~448 kbps avg |Авторский, В.Назаров|
    Аудио#6: English: 48 kHz, AC3, 3/2 (L,C,R,l,r) + LFE ch, ~448 kbps avg
    Субтитры: English

    ***Сохранены оригинальные главы как на Blu-ray.
    ***Релиз: msltel.

    Знаете ли вы, что...
    Съёмки начались 1 июня 2015 года в Дугласвилле, штат Джорджия.
    Как и показано в фильме, первый ресторан быстрого обслуживания «Макдональдс» появился в Сан-Бернардино, штат Калифорния. На этом месте сейчас располагается музей «Макдональдс». Самое старое из работающих до сих пор заведений сети было открыто в 1953 году. Оно находится в калифорнийском городе Дауни.
    От роли основателя сети «Макдональдс» Рэя Крока (1902-1984) отказался Том Хэнкс, и сыграл её Майкл Китон.
    Однажды после целого дня съёмок Майкл Китон в приступе щедрости закупил для всех актёров и съёмочной группы мороженое. Чтобы хватило всем по порции, потребовалось мороженое из двух фургончиков.
    До основания сети ресторанов «Макдональдс» Рэй Крок работал коммивояжёром в компании Prince Castle. Эта компания до сих пор существует и поставляет фирме «Макдональдс» оборудование.
    Помимо того, что Рей Крок продавал миксеры, он был еще и пианистом в джазовом ансамбле, а также агентом по продаже недвижимости.
    Показанные в фильме рестораны быстрого обслуживания «Макдональдс» были выстроены для съёмок на парковках, так как авторы фильма не сумели найти из уже существующих ресторанов те, что были бы расположены в соответствующих духу фильма местах.
    Узнав, что Рэй Крок играл на фортепиано, Майкл Китон в процессе подготовки к роли стал брать уроки музыки.
    Сценарий очень понравился Джоэлю и Итану Коэнам. Братья с удовольствием сняли бы фильм «Основатель», но были заняты в комедийном проекте «Да здравствует Цезарь!» (2016).
    Подсобку ресторана «Макдональдс» построили через стенку от кабинета Рэя Крока. Телефоны в обоих помещениях подключили к громкой связи, а разговоры по телефону снимали одновременно. Это было сделано, чтобы достичь большей достоверности в реакции занятых в этих сценах актёров.
    Сценарий фильма вошёл в так называемый «чёрный список» 2014 года - перечень самых многообещающих, но не реализованных проектов.
    Джон Кэрролл Линч заучил наизусть все реплики своего персонажа, как при работе в театре.
    Съёмки фильмов, как правило, продолжаются 12 часов в сутки и более. На съёмки «Основателя» зачастую уходило от 8 до 10 часов в сутки. Дело в том, что режиссёр Джон Ли Хэнкок тщательно подготовился к съёмочному периоду, и поэтому делать больше одного дубля приходилось достаточно редко. Учитывая, что на съёмки ушло всего 22 дня, получается своеобразный рекорд.
    Готовясь к роли Рэя Крока, Майкл Китон пересмотрел триллер «Американцы», также известный как «Гленгарри Глен Росс» с Аль Пачино (Джеймс Фоули, 1992), драму «Уолл-стрит» с Майклом Дугласом (Оливер Стоун, 1987), чёрную комедию «Волк с Уолл-стрит» с Леонардо ДиКаприо (Мартин Скорсезе, 2013) и комедийную драму «Джерри Магуайер» с Томом Крузом в главной роли (Кэмерон Кроу, 1996).
    В фильме Рэй и Этель Крок выведены бездетной парой, но в действительности у их прототипов была дочь.
    Джон Ли Хэнкок дважды отказывался снимать фильм «Основатель». Передумал он только после прочтения сценария.
    Режиссёр Джон Ли Хэнкок и продюсер Джереми Реннер активно помогали Майклу Китону вжиться в образ своего героя. Они предоставили актёру огромное количество видеозаписей Рэя Крока и его интервью.
    На действия Рэя Крока братья Дик и Мак Макдональды реагировали по-разному. Дик вернулся в Нью-Гэмпшир. К продаже идеи ресторанов быстрого обслуживания Кроку он относился спокойно. Ему только не нравилось, как Крок называл ресторан в Дес-Плейнс в штате Иллинойс «самым первым», так как на самом деле он был уже 9-м по счёту. Мак так никогда и не оправился от сделки с Кроком и всего через десятилетие скончался.
    Права на распространение фильма обошлись The Weinstein Company в $7 миллионов.
    При съёмках сцены, где его герой разбивает стеклянный столик, Майкл Китон получил травму руки.
    Братья Макдональды держали ресторан в Сан-Бернардино, однако фильм снимали не там, потому что город сильно изменился с 1950-х годов. Даже выбранные для фильма места съёмок, долженствующие изображать Сан-Бернардино, в действительности имеют мало общего с тем, как город выглядел в те годы. Здание первого ресторана «Макдональд», однако, воспроизведено с гораздо большей точностью.
    Вскоре после появления на экране персонажа в исполнении Б. Дж. Новака зритель видит карту, на которой можно разглядеть город Скрантон в штате Пенсильвания. В Скрантоне разворачивался сюжет сериала «Офис» (2005-2013), в создании которого принимал участие и в котором снимался Новак.
    Фильм снимали в штате Джорджия, где были выстроены декорации Иллинойса 1950-х годов. Надо заметить, что в Иллинойсе до сих пор стоят многие строения тех лет, включая дом Рэя Крока и клуб, членом которого он являлся, в городе Арлингтон-Хайтс. В Дес-Плейнс можно даже увидеть самый первый ресторан быстрого обслуживания «Макдональдс», правда не оригинал, а копию.
    В сцене, где на исходящий из ресторана «Макдональдс» запах якобы слетаются мухи, вместо насекомых издалека снимали шоколадные шарики Сocoa Krispies. Их высыпали перед мощным вентилятором, так что они летели, словно рой мух.
    Когда главный герой в исполнении Майкла Китона смотрит по карте дорогу в Сан-Бернардино, на ней можно увидеть город Ирвайн в штате Калифорния. В 1950-е годы этого города просто не существовало.Свернуть


    MediaInfo
    Общее
    Уникальный идентификатор                 : 185304605499602574288431942941049983922 (0x8B685E6D606A65F59E4FEC2489C593B2)
    Полное имя                               : Основатель.2016.BDRip.720p by msltel.mkv
    Формат                                   : Matroska
    Версия формата                           : Version 4 / Version 2
    Размер файла                             : 5,74 Гбайт
    Продолжительность                        : 1 ч. 55 м.
    Общий поток                              : 7121 Кбит/сек
    Название фильма                          : Rip by msltel
    Дата кодирования                         : UTC 2018-04-16 02:50:38
    Программа кодирования                    : mkvmerge v8.2.0 ("World of Adventure") 64bit
    Библиотека кодирования                   : libebml v1.3.1 + libmatroska v1.4.2

    Видео
    Идентификатор                            : 1
    Формат                                   : AVC
    Формат/Информация                        : Advanced Video Codec
    Профиль формата                          : High@L4.1
    Параметр CABAC формата                   : Да
    Параметр ReFrames формата                : 9 кадров
    Идентификатор кодека                     : V_MPEG4/ISO/AVC
    Продолжительность                        : 1 ч. 55 м.
    Битрейт                                  : 4163 Кбит/сек
    Ширина                                   : 1280 пикселей
    Высота                                   : 534 пикселя
    Соотношение сторон                       : 2,40:1
    Режим частоты кадров                     : Постоянный
    Частота кадров                           : 23,976 кадра/сек
    Цветовое пространство                    : YUV
    Субдискретизация насыщенности            : 4:2:0
    Битовая глубина                          : 8 бит
    Тип развёртки                            : Прогрессивная
    Бит/(Пиксели*Кадры)                      : 0.254
    Размер потока                            : 3,35 Гбайт (58%)
    Библиотека кодирования                   : x264 core 146 r2538 121396c
    Настройки программы                      : cabac=1 / ref=9 / deblock=1:-3:-2 / analyse=0x3:0x113 / me=umh / subme=11 / psy=1 / psy_rd=1.00:0.15 / mixed_ref=1 / me_range=32 / chroma_me=1 / trellis=2 / 8x8dct=1 / cqm=0 / deadzone=21,11 / fast_pskip=0 / chroma_qp_offset=-3 / threads=6 / lookahead_threads=1 / sliced_threads=0 / nr=0 / decimate=1 / interlaced=0 / bluray_compat=0 / constrained_intra=0 / bframes=8 / b_pyramid=2 / b_adapt=2 / b_bias=0 / direct=1 / weightb=1 / open_gop=0 / weightp=2 / keyint=230 / keyint_min=23 / scenecut=40 / intra_refresh=0 / rc_lookahead=40 / rc=crf / mbtree=0 / crf=17.0 / qcomp=0.60 / qpmin=0 / qpmax=69 / qpstep=4 / vbv_maxrate=62500 / vbv_bufsize=78125 / crf_max=0.0 / nal_hrd=none / filler=0 / ip_ratio=1.40 / pb_ratio=1.30 / aq=1:1.00
    Язык                                     : English
    Default                                  : Да
    Forced                                   : Нет

    Аудио #1
    Идентификатор                            : 2
    Формат                                   : AC-3
    Формат/Информация                        : Audio Coding 3
    Расширение режима                        : CM (complete main)
    Параметр Endianness формата              : Big
    Идентификатор кодека                     : A_AC3
    Продолжительность                        : 1 ч. 55 м.
    Вид битрейта                             : Постоянный
    Битрейт                                  : 640 Кбит/сек
    Каналы                                   : 6 каналов
    Расположение каналов                     : Front: L C R, Side: L R, LFE
    Частота                                  : 48,0 КГц
    Битовая глубина                          : 16 бит
    Метод сжатия                             : С потерями
    Размер потока                            : 528 Мбайт (9%)
    Заголовок                                : MVO AlexFilm
    Язык                                     : Russian
    Default                                  : Да
    Forced                                   : Нет

    Аудио #2
    Идентификатор                            : 3
    Формат                                   : AC-3
    Формат/Информация                        : Audio Coding 3
    Расширение режима                        : CM (complete main)
    Параметр Endianness формата              : Big
    Идентификатор кодека                     : A_AC3
    Продолжительность                        : 1 ч. 55 м.
    Вид битрейта                             : Постоянный
    Битрейт                                  : 384 Кбит/сек
    Каналы                                   : 6 каналов
    Расположение каналов                     : Front: L C R, Side: L R, LFE
    Частота                                  : 48,0 КГц
    Битовая глубина                          : 16 бит
    Метод сжатия                             : С потерями
    Размер потока                            : 317 Мбайт (5%)
    Заголовок                                : MVO Jaskier
    Язык                                     : Russian
    Default                                  : Нет
    Forced                                   : Нет

    Аудио #3
    Идентификатор                            : 4
    Формат                                   : AC-3
    Формат/Информация                        : Audio Coding 3
    Расширение режима                        : CM (complete main)
    Параметр Endianness формата              : Big
    Идентификатор кодека                     : A_AC3
    Продолжительность                        : 1 ч. 55 м.
    Вид битрейта                             : Постоянный
    Битрейт                                  : 448 Кбит/сек
    Каналы                                   : 6 каналов
    Расположение каналов                     : Front: L C R, Side: L R, LFE
    Частота                                  : 48,0 КГц
    Битовая глубина                          : 16 бит
    Метод сжатия                             : С потерями
    Размер потока                            : 370 Мбайт (6%)
    Заголовок                                : Вартан Дохалов
    Язык                                     : Russian
    Default                                  : Нет
    Forced                                   : Нет

    Аудио #4
    Идентификатор                            : 5
    Формат                                   : AC-3
    Формат/Информация                        : Audio Coding 3
    Расширение режима                        : CM (complete main)
    Параметр Endianness формата              : Big
    Идентификатор кодека                     : A_AC3
    Продолжительность                        : 1 ч. 55 м.
    Вид битрейта                             : Постоянный
    Битрейт                                  : 448 Кбит/сек
    Каналы                                   : 6 каналов
    Расположение каналов                     : Front: L C R, Side: L R, LFE
    Частота                                  : 48,0 КГц
    Битовая глубина                          : 16 бит
    Метод сжатия                             : С потерями
    Размер потока                            : 370 Мбайт (6%)
    Заголовок                                : Дмитрий Есарев
    Язык                                     : Russian
    Default                                  : Нет
    Forced                                   : Нет

    Аудио #5
    Идентификатор                            : 6
    Формат                                   : AC-3
    Формат/Информация                        : Audio Coding 3
    Расширение режима                        : CM (complete main)
    Параметр Endianness формата              : Big
    Идентификатор кодека                     : A_AC3
    Продолжительность                        : 1 ч. 55 м.
    Вид битрейта                             : Постоянный
    Битрейт                                  : 448 Кбит/сек
    Каналы                                   : 6 каналов
    Расположение каналов                     : Front: L C R, Side: L R, LFE
    Частота                                  : 48,0 КГц
    Битовая глубина                          : 16 бит
    Метод сжатия                             : С потерями
    Размер потока                            : 370 Мбайт (6%)
    Заголовок                                : Вадим Назаров
    Язык                                     : Russian
    Default                                  : Нет
    Forced                                   : Нет

    Аудио #6
    Идентификатор                            : 7
    Формат                                   : AC-3
    Формат/Информация                        : Audio Coding 3
    Расширение режима                        : CM (complete main)
    Параметр Endianness формата              : Big
    Идентификатор кодека                     : A_AC3
    Продолжительность                        : 1 ч. 55 м.
    Вид битрейта                             : Постоянный
    Битрейт                                  : 448 Кбит/сек
    Каналы                                   : 6 каналов
    Расположение каналов                     : Front: L C R, Side: L R, LFE
    Частота                                  : 48,0 КГц
    Битовая глубина                          : 16 бит
    Метод сжатия                             : С потерями
    Размер потока                            : 370 Мбайт (6%)
    Заголовок                                : original
    Язык                                     : English
    Default                                  : Нет
    Forced                                   : Нет

    Текст
    Идентификатор                            : 8
    Формат                                   : UTF-8
    Идентификатор кодека                     : S_TEXT/UTF8
    Идентификатор кодека/Информация          : UTF-8 Plain Text
    Заголовок                                : английские
    Язык                                     : English
    Default                                  : Нет
    Forced                                   : Нет

    Меню
    00:00:00.000                             : en:00:00:00.000
    00:04:21.094                             : en:00:04:21.094
    00:10:09.984                             : en:00:10:09.984
    00:16:15.391                             : en:00:16:15.391
    00:25:07.172                             : en:00:25:07.172
    00:31:55.247                             : en:00:31:55.247
    00:38:49.661                             : en:00:38:49.661
    00:45:43.491                             : en:00:45:43.491
    00:52:27.394                             : en:00:52:27.394
    01:00:31.670                             : en:01:00:31.670
    01:07:38.263                             : en:01:07:38.263
    01:12:04.904                             : en:01:12:04.904
    01:18:36.045                             : en:01:18:36.045
    01:24:36.947                             : en:01:24:36.947
    01:31:41.121                             : en:01:31:41.121
    01:37:26.674                             : en:01:37:26.674
    01:43:35.167                             : en:01:43:35.167
    01:47:11.675                             : en:01:47:11.675Свернуть


    Скриншоты
    [screen]http://img12.lostpic.net/2018/04/16/bba824a820d7f594923ae569c979ef23.png[/screen][screen]http://img12.lostpic.net/2018/04/16/1564ad2c65584fcf8d0b75ce5e5196b2.png[/screen][screen]http://img12.lostpic.net/2018/04/16/9917ab54ae01951205fb2600a0038dd6.png[/screen][screen]http://img12.lostpic.net/2018/04/16/05ce9ec9e0110c89b12bdb0740baff0e.png[/screen]Свернуть
    Похожие раздачи Искать похожие
    Инструкция по скачиванию
     1  Качаем uTorrent версии 2.0 и выше
     2  После установки, жмем выше под постером на ссылку Скачать [MediaGet] или Скачать .torrent
     3  Открываем скачанный файл через соответствующий клиент: MediaGet или uTorrent
     4  Ждем пока подключатся участники
     5  Качаем
    Комментарии о  Основатель / The Founder | BDRip 720p 
    Ближайшее в кино
    Вверх