• Игры для PS3
  • Игры для XBOX360
  • Игры для PC
  • Игры для PS2
  • Игры для PSP
  • Для телефонов
  • Музыка
  • Книги/Журналы
  • Обои
  •  
    Опрос
    Удобен ли сайт в использовании?
      0
    • Очень удобен, все понятно1,1,false,300,full
    • Удобен1,2,false,300,full
    • Средне1,3,false,300,full
    • Неудобен, трудно ориентироваться1,4,false,300,full
    • Совсем неудобен1,5,false,300,full
    Статистика
    Загрузка...
    Кавалерия / 12 Strong | WEB-DLRip
    Статус  Проверено
    В закладки
    Модератор: Max

    Кавалерия / 12 Strong | WEB-DLRip [Фильмы 2018] скачать торрентом/torrent бесплатно

    Год выхода
    Язык
    Закачал
    Max | 16 апреля в 14ч 18м 23с
    Раздел
    Отзывов
    0
    Раздают: 30 Качают: 19 Скачали: 977 Размер: 697.41 MB
    Инфо о раздаче | Благодарности |
    0/5
    0
    0 5 0
    Поддержи нас — расскажи друзьям!
    Orbitum
    Новый интернет-браузер Быстрее загружает сайты Экономит интернет—трафик Меняет оформление страницы ВК Блокирует всю рекламу на сайтах Загружает торренты как

    µTorrent

    клиент
    Объеденяет все твои чаты из соц. сетей в один Проигрывает твою музыку не заходя во ВКонтакте
    Скачать и многое другое... Подробности на сайте производителя
    Информация о фильме
    Оригинальное название: 12 Strong
    Год выхода: 2018
    Жанр: боевик, драма, военный, история
    Режиссер: Николай Фьюлси
    В ролях: Крис Хемсворт, Майкл Шеннон, Уильям Фихтнер, Эльза Патаки, Тейлор Шеридан, Джофф Стульц, Майкл Пенья, Роб Риггл, Треванте Роудс, Джек Кеси

    О фильме: Правдивая история об отряде американских солдат специального назначения, которых после трагедии 11 сентября 2001 года перебрасывают на антитеррористическую миссию в Афганистан. Элитные бойцы, вынужденные наступать верхом на лошадях, сталкиваются с целой армией талибов.

    [img]http://i89.fastpic.ru/big/2017/0502/69/67d521d70873d2399dac9e7d05d0b369.png[/img]

    Страна: США
    Продолжительность: 02:09:50
    Перевод: Любительский (многоголосый, закадровый) | HDRezka Studio
    Субтитры: Нет

    Файл
    Кодек: XviD
    Качество: WEB-DLRip
    Видео: 640x272 (2.35:1), 23.976 fps, XviD build 73 ~615 kbps avg, 0.15 bit/pixel
    Звук: 48 kHz, MPEG Layer 3, 2 ch, ~128.00 kbps avg

    MediaInfo
    General
    Complete name               : 12.Strong.2018.WEB-DLRip.ot.Portablius.avi
    Format                      : AVI
    Format/Info                 : Audio Video Interleave
    File size                   : 697 MiB
    Duration                    : 2 h 9 min
    Overall bit rate            : 753 kb/s
    Writing application         : VirtualDubMod 1.5.10.3 | www.virtualdub-fr.org || (build 2550/release)
    Writing library             : VirtualDub build 35491/release

    Video
    ID                          : 0
    Format                      : MPEG-4 Visual
    Format profile              : Advanced Simple@L5
    Format settings, BVOP       : 1
    Format settings, QPel       : No
    Format settings, GMC        : No warppoints
    Format settings, Matrix     : Custom
    Codec ID                    : XVID
    Codec ID/Hint               : XviD
    Duration                    : 2 h 9 min
    Bit rate                    : 616 kb/s
    Width                       : 640 pixels
    Height                      : 272 pixels
    Display aspect ratio        : 2.35:1
    Frame rate                  : 23.976 (24000/1001) FPS
    Color space                 : YUV
    Chroma subsampling          : 4:2:0
    Bit depth                   : 8 bits
    Scan type                   : Progressive
    Compression mode            : Lossy
    Bits/(Pixel*Frame)          : 0.148
    Stream size                 : 570 MiB (82%)
    Writing library             : XviD 73

    Audio
    ID                          : 1
    Format                      : MPEG Audio
    Format version              : Version 1
    Format profile              : Layer 3
    Codec ID                    : 55
    Codec ID/Hint               : MP3
    Duration                    : 2 h 9 min
    Bit rate mode               : Constant
    Bit rate                    : 128 kb/s
    Channel(s)                  : 2 channels
    Sampling rate               : 48.0 kHz
    Compression mode            : Lossy
    Stream size                 : 118 MiB (17%)
    Alignment                   : Aligned on interleaves
    Interleave, duration        : 42  ms (1.00 video frame)
    Interleave, preload duratio : 504  ms
    Writing library             : LAME3.99r
    Encoding settings           : -m s -V 4 -q 2 -lowpass 17 -b 128



    Скриншоты
    [img]http://i5.imageban.ru/out/2018/04/16/822f2709f41dab4337d13a1a324dfc75.png[/img][img]http://i3.imageban.ru/out/2018/04/16/9bdf326639e60a94748f3d680385ed7e.png[/img][img]http://i4.imageban.ru/out/2018/04/16/3f94bd922aa051b91c980a3f84ea6b4d.png[/img][img]http://i5.imageban.ru/out/2018/04/16/e0d40a0bb70dfa3c05c1df0650d9e903.png[/img][img]http://i4.imageban.ru/out/2018/04/16/e54c8bb9684f4fb2ff729de887efe21a.png[/img][img]http://i4.imageban.ru/out/2018/04/16/d91f57d0582928d88eb31e4a3699f787.png[/img]
    Еще похожие »

    Как скачать?
    1. Качаем UTorrent версии 2.0 и выше отсюда
    2. После установки, жмем на ссылку Скачать торрент.
    3. Открываем его через utorrent.
    4. Ждем пока подключатся участники.
    5. Качаем.


    Комментарии о Кавалерия / 12 Strong | WEB-DLRip
    Добавлять комментарии могут только зарегистрированные пользователи

    Зарегистрироваться или Войти


    Ближайшее в кино
    • Привидение дата выхода 26 апреля 2018Привидение
      Дата выхода: 26 апреля 2018
    • 1045590|Правда или действие|26 апреля 2018|200|300Правда или действие
      Дата выхода: 26 апреля 2018
    • 841470|Смешарики. Дежавю|26 апреля 2018|200|300Смешарики. Дежавю
      Дата выхода: 26 апреля 2018
    • 1046545|Танки|26 апреля 2018|200|300Танки
      Дата выхода: 26 апреля 2018
    • 1027311|Дыши во мгле|26 апреля 2018|200|300Дыши во мгле
      Дата выхода: 26 апреля 2018
    • 959260|Миссис Хайд|26 апреля 2018|200|300Миссис Хайд
      Дата выхода: 26 апреля 2018
    • 845128|Я заберу твои деньги|26 апреля 2018|200|300Я заберу твои деньги
      Дата выхода: 26 апреля 2018
    • 1112036|Лицо|26 апреля 2018|200|300Лицо
      Дата выхода: 26 апреля 2018
    • 1076322|Великолепная|26 апреля 2018|200|300Великолепная
      Дата выхода: 26 апреля 2018
    • 1110934|Золушка|28 апреля 2018|200|300Золушка
      Дата выхода: 28 апреля 2018
    • 1115701|МУЛЬТ в кино. Выпуск №74. Планета Май!|28 апреля 2018|200|300МУЛЬТ в кино. Выпуск №74. Планета Май!
      Дата выхода: 28 апреля 2018
    • 928533|Папа-мама гусь|1 мая 2018|200|300Папа-мама гусь
      Дата выхода: 1 мая 2018
    • 843649|Мстители: Война бесконечности|3 мая 2018|200|300Мстители: Война бесконечности
      Дата выхода: 3 мая 2018
    • 939785|Остров собак|3 мая 2018|200|300Остров собак
      Дата выхода: 3 мая 2018
    • 905031|Собибор|3 мая 2018|200|300Собибор
      Дата выхода: 3 мая 2018
    Вверх