• Игры для PS4
  • Игры для PS3
  • Игры для XBOX360
  • Игры для PC
  • Игры для PS2
  • Игры для PSP
  • Для телефонов
  • Музыка
  • Книги / Журналы
  • Обои
  • Опрос
    Удобен ли сайт в использовании?
      0
    • Очень удобен, все понятно1,1,false,300,full
    • Удобен1,2,false,300,full
    • Средне1,3,false,300,full
    • Неудобен, трудно ориентироваться1,4,false,300,full
    • Совсем неудобен1,5,false,300,full
    Статистика
    Всего онлайн -
    Гостей -
    Пользователей -
    Короли трекера
    Благодарности () Закрыть
    Информация о фильме
    Название: Желтая борода
    Оригинальное название: Yellowbeard
    Год выхода: 1983
    Жанр: Приключения, комедия
    Режиссер: Мел Дэмски
    В ролях: Грэм Чэпмен, Питер Бойл, Чич Марин, Томми Чонг, Питер Кук, Марти Фелдмэн, Эрик Айдл, Джон Клиз, Дэвид Боуи, Джеймс Мэйсон, Сюзанна Йорк, Мартин Хьюит, Майкл Хордерн, Мэдлин Кан

    О фильме:
    За долгие годы разбоя, пират Жёлтая Борода потопил 500 кораблей, убил чертову уйму людей, но был схвачен и посажен в тюрьму за уклонение от налогов. Прошло 20 лет и вот он выходит на волю. Но сокровища-то так и не нашли. Да и сам Жёлтая Борода плохо помнит где он их закопал. Правда есть карта, вытатуированная на голове его сына, но сын уже большой и явно не в папу...Пародия на "Остров сокровищ".


    Страна: Великобритания
    Студия: Hemdale, Iron Pics, Seagoat Films
    Продолжительность: 01:36:27
    Перевод: Профессиональный многоголосый, профессиональный двухголосый, авторский
    Файл
    Кодек: x.264
    Качество: BDRip 1080p
    Видео: MPEG-4 AVC, 1920x1040, ~11465 Kбит/с, 23.976 кадр/с
    Звук:
    Аудио #1: Русский ( АС3, 2ch, 192 Кбит/с, 48.0 KHz) Профессиональный (двухголосый закадровый) НТВ
    Аудио #2: Русский ( АС3, 2ch, 192 Кбит/с, 48.0 KHz) Профессиональный (многоголосый закадровый) ТВ-5 Петербург
    Аудио #3: Русский ( АС3, 2ch, 192 Кбит/с, 48.0 KHz) Авторский (одноголосый закадровый) Алексей Михалев
    Аудио #4: Русский ( АС3, 2ch, 192 Кбит/с, 48.0 KHz) Авторский (одноголосый закадровый) Михаил Иванов
    Аудио #5: Русский ( АС3, 2ch, 192 Кбит/с, 48.0 KHz) Авторский (одноголосый закадровый) Владимир Васильев
    Аудио #6: Английский ( АС3, 2ch, 224 Кбит/с, 48.0 KHz)
    Трейлер
    MediaInfo
    Источник: Yellowbeard.1983.1080p.BluRay.X264-AMIABLE
    General
    Unique ID                      : 232159751503248495926592238008408354346 (0xAEA8577BA0B7C7469CAC0E8D34C22E2A)
    Complete name                  : Yellowbeard.1983.BDRip.1080p.mkv
    Format                         : Matroska
    Format version                 : Version 4 / Version 2
    File size                      : 8.52 GiB
    Duration                       : 1 h 36 min
    Overall bit rate               : 12.7 Mb/s
    Encoded date                   : UTC 2018-04-11 15:43:41
    Writing application            : mkvmerge v7.1.0 ("Good Love") 64bit built on Jul 27 2014 13:06:55
    Writing library                : libebml v1.3.0 + libmatroska v1.4.1

    Video
    ID                             : 1
    Format                         : AVC
    Format/Info                    : Advanced Video Codec
    Format profile                 : High@L4.1
    Format settings                : CABAC / 4 Ref Frames
    Format settings, CABAC         : Yes
    Format settings, ReFrames      : 4 frames
    Codec ID                       : V_MPEG4/ISO/AVC
    Duration                       : 1 h 36 min
    Bit rate                       : 11.5 Mb/s
    Width                          : 1 920 pixels
    Height                         : 1 040 pixels
    Display aspect ratio           : 1.85:1
    Frame rate mode                : Constant
    Frame rate                     : 23.976 (24000/1001) FPS
    Color space                    : YUV
    Chroma subsampling             : 4:2:0
    Bit depth                      : 8 bits
    Scan type                      : Progressive
    Bits/(Pixel*Frame)             : 0.239
    Stream size                    : 7.72 GiB (91%)
    Writing library                : x264 core 146 r2538 121396c
    Encoding settings              : cabac=1 / ref=4 / deblock=1:-3:-3 / analyse=0x3:0x113 / me=umh / subme=8 / psy=1 / psy_rd=1.00:0.00 / mixed_ref=1 / me_range=16 / chroma_me=1 / trellis=1 / 8x8dct=1 / cqm=0 / deadzone=21,11 / fast_pskip=1 / chroma_qp_offset=-2 / threads=18 / lookahead_threads=3 / sliced_threads=0 / nr=0 / decimate=1 / interlaced=0 / bluray_compat=0 / constrained_intra=0 / bframes=3 / b_pyramid=2 / b_adapt=2 / b_bias=0 / direct=3 / weightb=1 / open_gop=0 / weightp=2 / keyint=240 / keyint_min=24 / scenecut=40 / intra_refresh=0 / rc_lookahead=50 / rc=2pass / mbtree=1 / bitrate=11465 / ratetol=1.0 / qcomp=0.60 / qpmin=0 / qpmax=69 / qpstep=4 / cplxblur=20.0 / qblur=0.5 / ip_ratio=1.40 / aq=1:1.00
    Language                       : English
    Default                        : Yes
    Forced                         : No

    Audio #1
    ID                             : 2
    Format                         : AC-3
    Format/Info                    : Audio Coding 3
    Codec ID                       : A_AC3
    Duration                       : 1 h 36 min
    Bit rate mode                  : Constant
    Bit rate                       : 192 kb/s
    Channel(s)                     : 2 channels
    Channel positions              : Front: L R
    Sampling rate                  : 48.0 kHz
    Frame rate                     : 31.250 FPS (1536 SPF)
    Bit depth                      : 16 bits
    Compression mode               : Lossy
    Stream size                    : 132 MiB (2%)
    Title                          : Профессиональный (двухголосый закадровый) НТВ
    Language                       : Russian
    Service kind                   : Complete Main
    Default                        : Yes
    Forced                         : No

    Audio #2
    ID                             : 3
    Format                         : AC-3
    Format/Info                    : Audio Coding 3
    Codec ID                       : A_AC3
    Duration                       : 1 h 36 min
    Bit rate mode                  : Constant
    Bit rate                       : 192 kb/s
    Channel(s)                     : 2 channels
    Channel positions              : Front: L R
    Sampling rate                  : 48.0 kHz
    Frame rate                     : 31.250 FPS (1536 SPF)
    Bit depth                      : 16 bits
    Compression mode               : Lossy
    Stream size                    : 132 MiB (2%)
    Title                          : Профессиональный (многоголосый закадровый) ТВ-5 Петербург
    Language                       : Russian
    Service kind                   : Complete Main
    Default                        : No
    Forced                         : No

    Audio #3
    ID                             : 4
    Format                         : AC-3
    Format/Info                    : Audio Coding 3
    Codec ID                       : A_AC3
    Duration                       : 1 h 36 min
    Bit rate mode                  : Constant
    Bit rate                       : 192 kb/s
    Channel(s)                     : 2 channels
    Channel positions              : Front: L R
    Sampling rate                  : 48.0 kHz
    Frame rate                     : 31.250 FPS (1536 SPF)
    Bit depth                      : 16 bits
    Compression mode               : Lossy
    Stream size                    : 132 MiB (2%)
    Title                          : Авторский (одноголосый закадровый) Алексей Михалев
    Language                       : Russian
    Service kind                   : Complete Main
    Default                        : No
    Forced                         : No

    Audio #4
    ID                             : 5
    Format                         : AC-3
    Format/Info                    : Audio Coding 3
    Codec ID                       : A_AC3
    Duration                       : 1 h 36 min
    Bit rate mode                  : Constant
    Bit rate                       : 192 kb/s
    Channel(s)                     : 2 channels
    Channel positions              : Front: L R
    Sampling rate                  : 48.0 kHz
    Frame rate                     : 31.250 FPS (1536 SPF)
    Bit depth                      : 16 bits
    Compression mode               : Lossy
    Stream size                    : 132 MiB (2%)
    Title                          : Авторский (одноголосый закадровый) Михаил Иванов
    Language                       : Russian
    Service kind                   : Complete Main
    Default                        : No
    Forced                         : No

    Audio #5
    ID                             : 6
    Format                         : AC-3
    Format/Info                    : Audio Coding 3
    Codec ID                       : A_AC3
    Duration                       : 1 h 36 min
    Bit rate mode                  : Constant
    Bit rate                       : 192 kb/s
    Channel(s)                     : 2 channels
    Channel positions              : Front: L R
    Sampling rate                  : 48.0 kHz
    Frame rate                     : 31.250 FPS (1536 SPF)
    Bit depth                      : 16 bits
    Compression mode               : Lossy
    Stream size                    : 132 MiB (2%)
    Title                          : Авторский (одноголосый закадровый) Владимир Васильев
    Language                       : Russian
    Service kind                   : Complete Main
    Default                        : No
    Forced                         : No

    Audio #6
    ID                             : 7
    Format                         : AC-3
    Format/Info                    : Audio Coding 3
    Codec ID                       : A_AC3
    Duration                       : 1 h 36 min
    Bit rate mode                  : Constant
    Bit rate                       : 224 kb/s
    Channel(s)                     : 2 channels
    Channel positions              : Front: L R
    Sampling rate                  : 48.0 kHz
    Frame rate                     : 31.250 FPS (1536 SPF)
    Bit depth                      : 16 bits
    Compression mode               : Lossy
    Stream size                    : 155 MiB (2%)
    Language                       : English
    Service kind                   : Complete Main
    Default                        : No
    Forced                         : No

    Menu
    00:00:00.000                   : en:Chapter 1
    00:05:00.000                   : en:Chapter 2
    00:10:00.000                   : en:Chapter 3
    00:15:00.000                   : en:Chapter 4
    00:20:00.000                   : en:Chapter 5
    00:25:00.000                   : en:Chapter 6
    00:30:00.000                   : en:Chapter 7
    00:35:00.000                   : en:Chapter 8
    00:40:00.000                   : en:Chapter 9
    00:45:00.000                   : en:Chapter 10
    00:50:00.000                   : en:Chapter 11
    00:55:00.000                   : en:Chapter 12
    01:00:00.000                   : en:Chapter 13
    01:05:00.000                   : en:Chapter 14
    01:10:00.000                   : en:Chapter 15
    01:15:00.000                   : en:Chapter 16
    01:20:00.000                   : en:Chapter 17
    01:25:00.000                   : en:Chapter 18
    01:30:00.000                   : en:Chapter 19

    Свернуть


    Похожие раздачи Искать похожие
    Инструкция по скачиванию
     1  Качаем uTorrent версии 2.0 и выше
     2  После установки, жмем выше под постером на ссылку Скачать [MediaGet] или Скачать .torrent
     3  Открываем скачанный файл через соответствующий клиент: MediaGet или uTorrent
     4  Ждем пока подключатся участники
     5  Качаем
    Комментарии о  Желтая борода / Yellowbeard | BDRip 1080p 
    Ближайшее в кино
    Вверх