• Игры для PS4
  • Игры для PS3
  • Игры для XBOX360
  • Игры для PC
  • Игры для PS2
  • Игры для PSP
  • Для телефонов
  • Музыка
  • Книги / Журналы
  • Обои
  • Опрос
    Удобен ли сайт в использовании?
      0
    • Очень удобен, все понятно1,1,false,300,full
    • Удобен1,2,false,300,full
    • Средне1,3,false,300,full
    • Неудобен, трудно ориентироваться1,4,false,300,full
    • Совсем неудобен1,5,false,300,full
    Статистика
    Всего онлайн -
    Гостей -
    Пользователей -
    Короли трекера
    Благодарности () Закрыть
    Информация о фильме
    Название: Санта и компания
    Оригинальное название: Santa & Cie
    Год выхода: 2017
    Жанр: Комедия, семейный
    Страна: Франция, Бельгия
    Перевод: Дублированный | iTunes
    Продолжительность: 01:40:18
    Режиссер: Ален Шаба
    В ролях: Ален Шаба, Голшифте Фарахани, Пио Мармай, Бруно Санчес, Луиз Шаба, Одри Тоту, Давид Марсе, Грегуар Людиг, Йохан Дионне, Tara Lugassy и др.

    О фильме:
    Прямо перед самым Рождеством 92 000 эльфов, ответственных за изготовление новогодних подарков для малышей, сражает неведомый недуг! Санте ничего не остается, как запрячь своих летающих оленей и поспешить на Землю за лекарством, чтобы вылечить милых помощников и спасти чудесный праздник. Одна проблема — никто не признает в н?ем самого главного в мире волшебника…

    [img]http://imdb.snick.ru/ratefor/02/tt7018010.png[/img][img]https://rating.kinopoisk.ru/1049040.gif[/img]

    Файл
    Качество: WEB-DL 1080p
    Видео: MPEG-4 AVC, 1912x792, 4510 kbps, 23,976 fps
    Звук: русский, AC3, 6 ch, 48 kHz, 384 kbps
    Субтитры: нет

    MI
    Общее
    Уникальный идентификатор                 : 220714983466211538530765499195912178103 (0xA60C28DA72AC3C628FEF8C16AC7949B7)
    Полное имя                               : G:DelugeСанта & компания (1080p HD).mkv
    Формат                                   : Matroska
    Версия формата                           : Version 4 / Version 2
    Размер файла                             : 3,43 Гбайт
    Продолжительность                        : 1 ч. 40 м.
    Общий поток                              : 4896 Кбит/сек
    Дата кодирования                         : UTC 2018-04-16 12:05:45
    Программа кодирования                    : mkvmerge v9.5.0 ("Quiet Fire") 64bit
    Библиотека кодирования                   : libebml v1.3.4 + libmatroska v1.4.5

    Видео
    Идентификатор                            : 1
    Формат                                   : AVC
    Формат/Информация                        : Advanced Video Codec
    Профиль формата                          : High@L4
    Настройки формата                        : CABAC / 5 Ref Frames
    Параметр CABAC формата                   : Да
    Параметр RefFrames формата               : 5 кадров
    Идентификатор кодека                     : V_MPEG4/ISO/AVC
    Продолжительность                        : 1 ч. 40 м.
    Битрейт                                  : 4510 Кбит/сек
    Ширина                                   : 1912 пикселей
    Высота                                   : 792 пикселя
    Соотношение сторон                       : 2,40:1
    Режим частоты кадров                     : Постоянный
    Частота кадров                           : 23,976 кадра/сек
    Цветовое пространство                    : YUV
    Субдискретизация насыщенности            : 4:2:0
    Битовая глубина                          : 8 бит
    Тип развёртки                            : Прогрессивная
    Бит/(Пиксели*Кадры)                      : 0.124
    Размер потока                            : 3,16 Гбайт (92%)
    Язык                                     : English
    Default                                  : Да
    Forced                                   : Нет
    Цветовой диапазон                        : Limited
    Основные цвета                           : BT.709
    Характеристики трансфера                 : BT.709
    Коэффициенты матрицы                     : BT.709

    Аудио
    Идентификатор                            : 2
    Формат                                   : AC-3
    Формат/Информация                        : Audio Coding 3
    Идентификатор кодека                     : A_AC3
    Продолжительность                        : 1 ч. 40 м.
    Вид битрейта                             : Постоянный
    Битрейт                                  : 384 Кбит/сек
    Каналы                                   : 6 каналов
    Расположение каналов                     : Front: L C R, Side: L R, LFE
    Частота                                  : 48,0 КГц
    Частота кадров                           : 31,250 кадров/сек (1536 SPF)
    Битовая глубина                          : 16 бит
    Метод сжатия                             : С потерями
    Размер потока                            : 275 Мбайт (8%)
    Язык                                     : Russian
    Default                                  : Да
    Forced                                   : Нет

    Меню
    00:00:00.000                             : en:1
    00:01:25.000                             : en:2
    00:11:54.000                             : en:3
    00:19:15.000                             : en:4
    00:26:17.000                             : en:5
    00:37:12.000                             : en:6
    00:45:40.000                             : en:7
    00:58:50.000                             : en:8
    01:07:17.000                             : en:9
    01:17:16.000                             : en:10
    01:25:03.000                             : en:11
    01:33:18.000                             : en:12

    Свернуть


    Скриншоты
    [screen]http://img12.lostpic.net/2018/04/16/7a46a6ce8ab3edc5fedc035eb2de6b6f.png[/screen][screen]http://img12.lostpic.net/2018/04/16/cdae260282d6f8741d2bdef2bd11f16a.png[/screen][screen]http://img12.lostpic.net/2018/04/16/6d0ddc1ac212f4ad2929c95031013071.png[/screen][screen]http://img12.lostpic.net/2018/04/16/034017ebf77760b1c649f66e7104fcbc.png[/screen]
    [screen]http://img12.lostpic.net/2018/04/16/32abe942910a0e33c70a2a5cebb179a6.png[/screen][screen]http://img12.lostpic.net/2018/04/16/068913b438d149f484b1d1593f8194fe.png[/screen][screen]http://img12.lostpic.net/2018/04/16/accc31b66ef0049372f9286de3b2eeac.png[/screen][screen]http://img12.lostpic.net/2018/04/16/5a90ddd4766bd0a591c6aa0d2b148ccf.png[/screen]Свернуть
    Похожие раздачи Искать похожие
    Инструкция по скачиванию
     1  Качаем uTorrent версии 2.0 и выше
     2  После установки, жмем выше под постером на ссылку Скачать [MediaGet] или Скачать .torrent
     3  Открываем скачанный файл через соответствующий клиент: MediaGet или uTorrent
     4  Ждем пока подключатся участники
     5  Качаем
    Комментарии о  Санта и компания / Santa & Cie | WEB-DL 1080p 
    Ближайшее в кино
    Вверх