• Игры для PS4
  • Игры для PS3
  • Игры для XBOX360
  • Игры для PC
  • Игры для PS2
  • Игры для PSP
  • Для телефонов
  • Музыка
  • Книги / Журналы
  • Обои
  • Опрос
    Откуда Вы о нас узнали?
      0
    • От знакомых2,1,false,300,full
    • Из социальных сетей2,2,false,300,full
    • Из поисковых систем2,3,false,300,full
    • Другое2,4,false,300,full
    Статистика
    Всего онлайн -
    Гостей -
    Пользователей -
    Короли трекера
    Благодарности () Закрыть
    Информация о фильме:
    Название: Спящий лагерь 2
    Оригинальное название: Sleepaway Camp II: Unhappy Campers
    Год выхода: 1988
    Жанр:  Триллер, ужасы, комедия
    Режиссер: Майкл А. Симпсон
    В ролях: Памела Спрингстин, Рене Эстевез, Тони Хиггинс, Валери Хартман, Брайан Патрик Кларк, Уолтер Готелл, Сьюзан Мари Снайдер, Терри Хоббс, Кендалл Бин, Джули Мерфи

    О фильме :
    Опасный маньяк, освобожденный из психиатрической лечебницы и признанный вылечившимся пациентом, приезжает в летний лагерь Роллинг Хиллз, где начинает убивать подростков, которые, по мнению злодея, плоховато себя ведут…



    Выпущено: США
    Продолжительность: 01:20:07
    Перевод: Профессиональный (многоголосый, закадровый) - R5

    Файл
    Формат: MKV
    Качество: BDRip-AVC (BDRemux 1080p)
    Видео: MPEG-4 AVC, 752x408, ~ 1224 Кбит/с
    Аудио: [img]http://i93.fastpic.ru/big/2017/0727/c0/4b72f0369a3393219ed5935e91fc15c0.gif[/img] AAC-HE, 2 ch, ~ 76 Кбит/с
    Субтитры: Нет

    MI
    Общее
    Уникальный идентификатор : 205616278240663496514318839332743177697 (0x9AB041361901CE7D9835038B745C65E1)
    Полное имя : D:MOVIESSleepaway Camp II.1988.ExKinoRay.mkv
    Формат : Matroska
    Версия формата : Version 4 / Version 2
    Размер файла : 746 Мбайт
    Продолжительность : 1 ч. 20 м.
    Общий поток : 1301 Кбит/сек
    Дата кодирования : UTC 2018-04-16 14:05:23
    Программа кодирования : mkvmerge v15.0.0 ("Duel with the Devil") 64-bit
    Библиотека кодирования : libebml v1.3.5 + libmatroska v1.4.5

    Видео
    Идентификатор : 1
    Формат : AVC
    Формат/Информация : Advanced Video Codec
    Профиль формата : High@L4.1
    Параметр CABAC формата : Да
    Параметр RefFrames формата : 10 кадров
    Идентификатор кодека : V_MPEG4/ISO/AVC
    Продолжительность : 1 ч. 20 м.
    Битрейт : 1224 Кбит/сек
    Ширина : 752 пикселя
    Высота : 408 пикселей
    Соотношение сторон : 1,85:1
    Режим частоты кадров : Постоянный
    Частота кадров : 23,976 (24000/1001) кадра/сек
    Цветовое пространство : YUV
    Субдискретизация насыщенности : 4:2:0
    Битовая глубина : 8 бит
    Тип развёртки : Прогрессивная
    Бит/(Пиксели*Кадры) : 0.166
    Размер потока : 701 Мбайт (94%)
    Библиотека кодирования : x264 core 155 r2901 7d0ff22
    Настройки программы : cabac=1 / ref=10 / deblock=1:-3:-2 / analyse=0x3:0x133 / me=umh / subme=11 / psy=1 / psy_rd=1.00:0.15 / mixed_ref=1 / me_range=32 / chroma_me=1 / trellis=2 / 8x8dct=1 / cqm=0 / deadzone=21,11 / fast_pskip=0 / chroma_qp_offset=-3 / threads=6 / lookahead_threads=1 / sliced_threads=0 / nr=0 / decimate=0 / interlaced=0 / bluray_compat=0 / constrained_intra=0 / bframes=10 / b_pyramid=2 / b_adapt=2 / b_bias=0 / direct=3 / weightb=1 / open_gop=0 / weightp=2 / keyint=240 / keyint_min=23 / scenecut=40 / intra_refresh=0 / rc_lookahead=40 / rc=2pass / mbtree=1 / bitrate=1224 / ratetol=1.0 / qcomp=0.60 / qpmin=0 / qpmax=69 / qpstep=4 / cplxblur=20.0 / qblur=0.5 / vbv_maxrate=50000 / vbv_bufsize=62500 / nal_hrd=none / filler=0 / ip_ratio=1.40 / aq=3:1.00
    Default : Да
    Forced : Нет

    Аудио
    Идентификатор : 2
    Формат : AAC
    Формат/Информация : Advanced Audio Codec
    Профиль формата : HE-AAC / LC
    Идентификатор кодека : A_AAC
    Продолжительность : 1 ч. 20 м.
    Битрейт : 76,0 Кбит/сек
    Каналы : 2 канала
    Расположение каналов : Front: L R
    Частота : 48,0 КГц / 24,0 КГц
    Частота кадров : 23,438 кадра/сек (1024 SPF)
    Метод сжатия : С потерями
    Задержка видео : 31 мс.
    Размер потока : 43,6 Мбайт (6%)
    Язык : Russian
    Default : Да
    Forced : Нет

    Меню
    00:00:00.000 : en:00:00:00.000
    00:06:33.018 : en:00:06:33.018
    00:13:05.785 : en:00:13:05.785
    00:20:07.206 : en:00:20:07.206
    00:25:24.148 : en:00:25:24.148
    00:32:16.935 : en:00:32:16.935
    00:38:37.315 : en:00:38:37.315
    00:43:51.629 : en:00:43:51.629
    00:50:58.055 : en:00:50:58.055
    00:57:59.101 : en:00:57:59.101
    01:04:07.844 : en:01:04:07.844
    01:13:06.007 : en:01:13:06.007
    Свернуть


    Скриншоты
    [screen]http://i6.imageban.ru/out/2018/04/16/b5c8e3e0a6e71c2a0e6e606e3426ea3d.jpg[/screen][screen]http://i2.imageban.ru/out/2018/04/16/a5d9d0752492b69e550aa91b3ceb7f07.jpg[/screen][screen]http://i4.imageban.ru/out/2018/04/16/335a39f86e02a3d4195abdd6484fda05.jpg[/screen][screen]http://i2.imageban.ru/out/2018/04/16/5bcea70e12ae4c967448997c47fbc1f9.jpg[/screen]

    [screen]http://i6.imageban.ru/out/2018/04/16/be64acd1a3d1094d3c0e8810c879b7dd.jpg[/screen][screen]http://i4.imageban.ru/out/2018/04/16/3f4a758e1afe36b07b9c8672fda67a03.jpg[/screen][screen]http://i3.imageban.ru/out/2018/04/16/9f4568da354795a6e8dce01c58fc54c3.jpg[/screen][screen]http://i3.imageban.ru/out/2018/04/16/a6721f876cd1b6443aa63f165aed2ac6.jpg[/screen]Свернуть
    Похожие раздачи Искать похожие
    Инструкция по скачиванию
     1  Качаем uTorrent версии 2.0 и выше
     2  После установки, жмем выше под постером на ссылку Скачать [MediaGet] или Скачать .torrent
     3  Открываем скачанный файл через соответствующий клиент: MediaGet или uTorrent
     4  Ждем пока подключатся участники
     5  Качаем
    Комментарии о  Спящий лагерь 2 / Sleepaway Camp II: Unhappy Campers | BDRip-AVC 
    Ближайшее в кино
    Вверх