• Игры для PS4
  • Игры для PS3
  • Игры для XBOX360
  • Игры для PC
  • Игры для PS2
  • Игры для PSP
  • Для телефонов
  • Музыка
  • Книги / Журналы
  • Обои
  • Опрос
    Откуда Вы о нас узнали?
      0
    • От знакомых2,1,false,300,full
    • Из социальных сетей2,2,false,300,full
    • Из поисковых систем2,3,false,300,full
    • Другое2,4,false,300,full
    Статистика
    Всего онлайн -
    Гостей -
    Пользователей -
    Короли трекера
    
    Благодарности () Закрыть
    Быстрее загружает сайты Экономит интернет—трафик Меняет оформление страницы ВК Блокирует всю рекламу на сайтах Загружает торренты как µTorrent клиент Объеденяет все твои чаты из соц. сетей в один Проигрывает твою музыку не заходя во ВКонтакте
    Новый интернет-браузер
    Оrbitum
    Скачать
    и многое другое... Подробности на сайте производителя
    Информация о фильме
    Название: Две недели
    Оригинальное название: Two Weeks
    Год выхода: 2006
    Жанр: комедия, драма
    Режиссер: Стив Стокман / Steve Stockman
    В ролях: Салли Филд, Бен Чаплин, Лорен Абулафиа, Джулианна Николсон, Томас Кавана, Джеймс Муртаг, Эми Хаббард, Терренс МакНэлли, Майкл Хайатт, Гленн Хоуертон

    О фильме:
    Четверо взрослых детей приезжают в дом к умирающей матери в Северной Каролине. Волей судьбы они оказываются в ситуации в которой им придется провести вместе две недели.


    Страна: США
    Студия: Metro-Goldwyn-Mayer (MGM), Custom Productions, Two Weeks
    Продолжительность: 01:38:31
    Перевод: Профессиональный (многоголосый закадровый) Первый ТВЧ

    Файл
    Кодек: h264
    Качество: WEB-DL 1080p
    Видео: 1920x1040, 1.85:1, 9433 kbps, 23.976 FPS
    Звук:
    Аудио: Русский / Многоголосый закадровый, AC3, 2 ch, 48 KHz, 192 kbps
    Аудио 2: Английский, E-AC3, 6 ch, 48 KHz, 640 kbps
    Субтитры:
    №1: английские (полные), SRT
    №2: английские (полные), SDH, SRT

    Семпл



    M.I

    General
    Unique ID : 173593145890743707740008546933359028212 (0x8298D2E352107AA983F5213EC6B8A7F4)
    Complete name : D:DownloadsTwo.Weeks.2006.WEBRip.1080p.mkv
    Format : Matroska
    Format version : Version 4 / Version 2
    File size : 7.07 GiB
    Duration : 1 h 38 min
    Overall bit rate mode : Variable
    Overall bit rate : 10.3 Mb/s
    Encoded date : UTC 2018-04-16 14:24:56
    Writing application : mkvmerge v22.0.0 ("At The End Of The World") 64-bit
    Writing library : libebml v1.3.5 + libmatroska v1.4.8

    Video
    ID : 1
    Format : AVC
    Format/Info : Advanced Video Codec
    Format profile : High@L4
    Format settings : CABAC / 4 Ref Frames
    Format settings, CABAC : Yes
    Format settings, ReFrames : 4 frames
    Codec ID : V_MPEG4/ISO/AVC
    Duration : 1 h 38 min
    Bit rate mode : Variable
    Bit rate : 9 433 kb/s
    Maximum bit rate : 15.0 Mb/s
    Width : 1 920 pixels
    Height : 1 040 pixels
    Display aspect ratio : 1.85:1
    Frame rate mode : Constant
    Frame rate : 23.976 (24000/1001) FPS
    Color space : YUV
    Chroma subsampling : 4:2:0
    Bit depth : 8 bits
    Scan type : Progressive
    Bits/(Pixel*Frame) : 0.197
    Stream size : 6.49 GiB (92%)
    Default : Yes
    Forced : No
    Color range : Limited
    Color primaries : BT.709
    Transfer characteristics : BT.709
    Matrix coefficients : BT.709

    Audio #1
    ID : 2
    Format : AC-3
    Format/Info : Audio Coding 3
    Codec ID : A_AC3
    Duration : 1 h 38 min
    Bit rate mode : Constant
    Bit rate : 192 kb/s
    Channel(s) : 2 channels
    Channel positions : Front: L R
    Sampling rate : 48.0 kHz
    Frame rate : 31.250 FPS (1536 SPF)
    Bit depth : 16 bits
    Compression mode : Lossy
    Stream size : 135 MiB (2%)
    Title : Профессиональный (многоголосый закадровый) | Первый ТВЧ
    Language : Russian
    Service kind : Complete Main
    Default : Yes
    Forced : No

    Audio #2
    ID : 3
    Format : E-AC-3
    Format/Info : Enhanced Audio Coding 3
    Codec ID : A_EAC3
    Duration : 1 h 38 min
    Bit rate mode : Constant
    Bit rate : 640 kb/s
    Channel(s) : 6 channels
    Channel positions : Front: L C R, Side: L R, LFE
    Sampling rate : 48.0 kHz
    Frame rate : 187.500 FPS (256 SPF)
    Compression mode : Lossy
    Stream size : 451 MiB (6%)
    Language : English
    Service kind : Complete Main
    Default : No
    Forced : No

    Text #1
    ID : 4
    Format : UTF-8
    Codec ID : S_TEXT/UTF8
    Codec ID/Info : UTF-8 Plain Text
    Duration : 1 h 34 min
    Bit rate : 61 b/s
    Count of elements : 1381
    Stream size : 42.2 KiB (0%)
    Language : English
    Default : No
    Forced : No

    Text #2
    ID : 5
    Format : UTF-8
    Codec ID : S_TEXT/UTF8
    Codec ID/Info : UTF-8 Plain Text
    Duration : 1 h 34 min
    Bit rate : 63 b/s
    Count of elements : 1479
    Stream size : 43.8 KiB (0%)
    Title : SDH
    Language : English
    Default : No
    Forced : NoСвернуть
    Инструкция по скачиванию
     1  Качаем uTorrent версии 2.0 и выше
     2  После установки, жмем выше под постером на ссылку Скачать [MediaGet] или Скачать .torrent
     3  Открываем скачанный файл через соответствующий клиент: MediaGet или uTorrent
     4  Ждем пока подключатся участники
     5  Качаем
    Комментарии о  Две недели / Two Weeks | WEB-DL 1080p 
    Ближайшее в кино
    Вверх