• Игры для PS4
  • Игры для PS3
  • Игры для XBOX360
  • Игры для PC
  • Игры для PS2
  • Игры для PSP
  • Для телефонов
  • Музыка
  • Книги/Журналы
  • Обои
  •  
    Опрос
    Удобен ли сайт в использовании?
      0
    • Очень удобен, все понятно1,1,false,300,full
    • Удобен1,2,false,300,full
    • Средне1,3,false,300,full
    • Неудобен, трудно ориентироваться1,4,false,300,full
    • Совсем неудобен1,5,false,300,full
    Статистика
    Загрузка...
    Бен-Гур / Ben-Hur | BDRip-HEVC 1080p
    Статус  Проверено
    В закладки
    Модератор: Max

    Бен-Гур / Ben-Hur | BDRip-HEVC 1080p [Фильмы 1959] скачать торрентом/torrent бесплатно

    Год выхода
    Язык
    Закачал
    Max | 16 апреля в 20ч 10м 02с
    Раздел
    Отзывов
    0
    Раздают: 4 Качают: 0 Скачали: 7 Размер: 15.73 GB
    Инфо о раздаче | Благодарности |
    0/5
    0
    0 5 0
    Поддержи нас — расскажи друзьям!
    Orbitum
    Новый интернет-браузер Быстрее загружает сайты Экономит интернет—трафик Меняет оформление страницы ВК Блокирует всю рекламу на сайтах Загружает торренты как

    µTorrent

    клиент
    Объеденяет все твои чаты из соц. сетей в один Проигрывает твою музыку не заходя во ВКонтакте
    Скачать и многое другое... Подробности на сайте производителя
    Информация о фильме
    Название: Бен-Гур
    Оригинальное название: Ben-Hur
    Год выхода: 1959
    Жанр: драма, приключения, военный
    Режиссер: Уильям Уайлер
    В ролях: Чарлтон Хестон, Джек Хоукинс, Хайя Харарит, Стивен Бойд, Хью Гриффит, Марта Скотт, Кэти О’Доннелл, Сэм Джаффе, Финлэй Карри, Фрэнк Тринг

    О фильме:
    Действие фильма начинается в Палестине в 26 году от Рождества Христова. Два друга, иудей Бен Гур и римлянин Мессала, встречаются после долгой разлуки взрослыми людьми и понимают, что дружба уже невозможна…



    Страна: США
    Продолжительность: 02:21:52 / 01:20:35
    Перевод: Профессиональный дублированный, профессиональный многоголосый, авторский одноголосый

    Файл
    Кодек: HEVC x265 10 bit
    Качество: BDRip-HEVC 1080p

    1-ая часть:
    Видео: 1920x696 (2,759), 7363 Кбит/сек, 0.230 бит/(Пиксели*Кадры), 23.976 (24000/1001) кадр/сек, HEVC (Main10@L.4.1@High) 10 бит
    Звук:
    Русская, AC3, 192 Кбит/сек, Front: L R, 48,0 КГц (Дубляж Варус Видео)
    Русская, AC3, 448 Кбит/сек, Front: L C R, Side: L R, LFE, 48,0 КГц (MVO SomeWax)
    Русская, AC3, 448 Кбит/сек, Front: L C R, Side: L R, LFE, 48,0 КГц (AVO Гаврилов)
    Русская, AC3, 448 Кбит/сек, Front: L C R, Side: L R, LFE, 48,0 КГц (AVO Живов)
    Английская, AC3, 448 Кбит/сек, Front: L C R, Side: L R, LFE, 48,0 КГц (Оригинал)
    Субтитры: Русские, английские
    Разделение по главам: есть

    Семпл 1-ая часть

    MediaInfo

    Общее
    Уникальный идентификатор                 : 69772564897324236003839219700551786957 (0x347DB50B459C89BCAA951C18E99221CD)
    Полное имя                               : H:HEVC 210 BITBen-Hur 1959Ben-Gur_1959_Disc_1_BDRip_1080p_[HEVC]_10bit.mkv
    Формат                                   : Matroska
    Версия формата                           : Version 4 / Version 2
    Размер файла                             : 9,27 Гбайт
    Продолжительность                        : 2 ч. 21 м.
    Общий поток                              : 9351 Кбит/сек
    Название фильма                          : HEVC by XuMuK
    Дата кодирования                         : UTC 2018-04-15 12:10:15
    Программа кодирования                    : mkvmerge v21.0.0 ("Tardigrades Will Inherit The Earth") 64-bit
    Библиотека кодирования                   : libebml v1.3.5 + libmatroska v1.4.8
    Обложка                                  : Yes
    Attachments                              : cover.jpg

    Видео
    Идентификатор                            : 1
    Формат                                   : HEVC
    Формат/Информация                        : High Efficiency Video Coding
    Профиль формата                          : Main 10@L4.1@High
    Идентификатор кодека                     : V_MPEGH/ISO/HEVC
    Продолжительность                        : 2 ч. 21 м.
    Битрейт                                  : 7363 Кбит/сек
    Ширина                                   : 1920 пикселей
    Высота                                   : 696 пикселей
    Соотношение сторон                       : 2,759
    Режим частоты кадров                     : Постоянный
    Частота кадров                           : 23,976 (24000/1001) кадра/сек
    Цветовое пространство                    : YUV
    Субдискретизация насыщенности            : 4:2:0
    Битовая глубина                          : 10 бит
    Бит/(Пиксели*Кадры)                      : 0.230
    Размер потока                            : 7,30 Гбайт (79%)
    Библиотека кодирования                   : x265 2.7+17-2e370d98c806:[Windows][GCC 8.0.1][64 bit] 10bit
    Настройки программы                      : cpuid=1173503 / frame-threads=4 / numa-pools=16 / wpp / no-pmode / no-pme / no-psnr / no-ssim / log-level=2 / input-csp=1 / input-res=1920x696 / interlace=0 / total-frames=204102 / level-idc=41 / high-tier=1 / uhd-bd=0 / ref=5 / no-allow-non-conformance / no-repeat-headers / annexb / no-aud / no-hrd / info / hash=0 / no-temporal-layers / open-gop / min-keyint=23 / keyint=240 / gop-lookahead=0 / bframes=8 / b-adapt=2 / no-b-pyramid / bframe-bias=0 / rc-lookahead=120 / lookahead-slices=0 / scenecut=40 / radl=0 / no-intra-refresh / ctu=64 / min-cu-size=8 / rect / amp / max-tu-size=32 / tu-inter-depth=3 / tu-intra-depth=3 / limit-tu=1 / rdoq-level=1 / dynamic-rd=0.00 / no-ssim-rd / signhide / no-tskip / nr-intra=0 / nr-inter=0 / no-constrained-intra / no-strong-intra-smoothing / max-merge=5 / limit-refs=2 / limit-modes / me=3 / subme=7 / merange=92 / temporal-mvp / weightp / weightb / no-analyze-src-pics / deblock=-3:-3 / no-sao / no-sao-non-deblock / rd=6 / no-early-skip / rskip / no-fast-intra / no-tskip-fast / no-cu-lossless / b-intra / no-splitrd-skip / rdpenalty=0 / psy-rd=2.00 / psy-rdoq=1.00 / no-rd-refine / no-lossless / cbqpoffs=-2 / crqpoffs=-2 / rc=crf / crf=18.0 / qcomp=0.60 / qpstep=4 / stats-write=0 / stats-read=0 / vbv-maxrate=50000 / vbv-bufsize=50000 / vbv-init=0.9 / crf-max=0.0 / crf-min=0.0 / ipratio=1.40 / pbratio=1.30 / aq-mode=1 / aq-strength=1.00 / cutree / zone-count=1 / zones: / start-frame=1 / end-frame=9431 / qp=35 / no-strict-cbr / qg-size=32 / no-rc-grain / qpmax=69 / qpmin=0 / no-const-vbv / sar=1 / overscan=0 / videoformat=5 / range=0 / colorprim=1 / transfer=1 / colormatrix=1 / chromaloc=0 / display-window=0 / max-cll=0,0 / min-luma=0 / max-luma=1023 / log2-max-poc-lsb=8 / vui-timing-info / vui-hrd-info / slices=1 / no-opt-qp-pps / no-opt-ref-list-length-pps / no-multi-pass-opt-rps / scenecut-bias=0.05 / no-opt-cu-delta-qp / no-aq-motion / no-hdr / no-hdr-opt / no-dhdr10-opt / no-idr-recovery-sei / analysis-reuse-level=5 / scale-factor=0 / refine-intra=0 / refine-inter=0 / refine-mv=0 / no-limit-sao / ctu-info=0 / no-lowpass-dct / refine-mv-type=0 / copy-pic=1 / max-ausize-factor=1.0 / no-dynamic-refine
    Default                                  : Да
    Forced                                   : Нет
    Цветовой диапазон                        : Limited
    Основные цвета                           : BT.709
    Характеристики трансфера                 : BT.709
    Коэффициенты матрицы                     : BT.709

    Аудио #1
    Идентификатор                            : 2
    Формат                                   : AC-3
    Формат/Информация                        : Audio Coding 3
    Идентификатор кодека                     : A_AC3
    Продолжительность                        : 2 ч. 21 м.
    Вид битрейта                             : Постоянный
    Битрейт                                  : 192 Кбит/сек
    Каналы                                   : 2 канала
    Расположение каналов                     : Front: L R
    Частота                                  : 48,0 КГц
    Частота кадров                           : 31,250 кадров/сек (1536 SPF)
    Битовая глубина                          : 16 бит
    Метод сжатия                             : С потерями
    Размер потока                            : 195 Мбайт (2%)
    Заголовок                                : Дубляж (Варус Видео)
    Язык                                     : Russian
    ServiceKind                              : Complete Main
    Default                                  : Да
    Forced                                   : Нет

    Аудио #2
    Идентификатор                            : 3
    Формат                                   : AC-3
    Формат/Информация                        : Audio Coding 3
    Идентификатор кодека                     : A_AC3
    Продолжительность                        : 2 ч. 21 м.
    Вид битрейта                             : Постоянный
    Битрейт                                  : 448 Кбит/сек
    Каналы                                   : 6 каналов
    Расположение каналов                     : Front: L C R, Side: L R, LFE
    Частота                                  : 48,0 КГц
    Частота кадров                           : 31,250 кадров/сек (1536 SPF)
    Битовая глубина                          : 16 бит
    Метод сжатия                             : С потерями
    Размер потока                            : 455 Мбайт (5%)
    Заголовок                                : MVO SomeWax
    Язык                                     : Russian
    ServiceKind                              : Complete Main
    Default                                  : Нет
    Forced                                   : Нет

    Аудио #3
    Идентификатор                            : 4
    Формат                                   : AC-3
    Формат/Информация                        : Audio Coding 3
    Идентификатор кодека                     : A_AC3
    Продолжительность                        : 2 ч. 21 м.
    Вид битрейта                             : Постоянный
    Битрейт                                  : 448 Кбит/сек
    Каналы                                   : 6 каналов
    Расположение каналов                     : Front: L C R, Side: L R, LFE
    Частота                                  : 48,0 КГц
    Частота кадров                           : 31,250 кадров/сек (1536 SPF)
    Битовая глубина                          : 16 бит
    Метод сжатия                             : С потерями
    Размер потока                            : 455 Мбайт (5%)
    Заголовок                                : AVO Гаврилов
    Язык                                     : Russian
    ServiceKind                              : Complete Main
    Default                                  : Нет
    Forced                                   : Нет

    Аудио #4
    Идентификатор                            : 5
    Формат                                   : AC-3
    Формат/Информация                        : Audio Coding 3
    Идентификатор кодека                     : A_AC3
    Продолжительность                        : 2 ч. 21 м.
    Вид битрейта                             : Постоянный
    Битрейт                                  : 448 Кбит/сек
    Каналы                                   : 6 каналов
    Расположение каналов                     : Front: L C R, Side: L R, LFE
    Частота                                  : 48,0 КГц
    Частота кадров                           : 31,250 кадров/сек (1536 SPF)
    Битовая глубина                          : 16 бит
    Метод сжатия                             : С потерями
    Размер потока                            : 455 Мбайт (5%)
    Заголовок                                : AVO Живов
    Язык                                     : Russian
    ServiceKind                              : Complete Main
    Default                                  : Нет
    Forced                                   : Нет

    Аудио #5
    Идентификатор                            : 6
    Формат                                   : AC-3
    Формат/Информация                        : Audio Coding 3
    Идентификатор кодека                     : A_AC3
    Продолжительность                        : 2 ч. 21 м.
    Вид битрейта                             : Постоянный
    Битрейт                                  : 448 Кбит/сек
    Каналы                                   : 6 каналов
    Расположение каналов                     : Front: L C R, Side: L R, LFE
    Частота                                  : 48,0 КГц
    Частота кадров                           : 31,250 кадров/сек (1536 SPF)
    Битовая глубина                          : 16 бит
    Метод сжатия                             : С потерями
    Размер потока                            : 455 Мбайт (5%)
    Заголовок                                : Оригинал
    Язык                                     : English
    ServiceKind                              : Complete Main
    Default                                  : Нет
    Forced                                   : Нет

    Текст #1
    Идентификатор                            : 7
    Формат                                   : UTF-8
    Идентификатор кодека                     : S_TEXT/UTF8
    Идентификатор кодека/Информация          : UTF-8 Plain Text
    Продолжительность                        : 2 ч. 20 м.
    Битрейт                                  : 59 бит/сек
    ElementCount                             : 1140
    Размер потока                            : 60,9 Кбайт (0%)
    Заголовок                                : RUS
    Язык                                     : Russian
    Default                                  : Да
    Forced                                   : Нет

    Текст #2
    Идентификатор                            : 8
    Формат                                   : UTF-8
    Идентификатор кодека                     : S_TEXT/UTF8
    Идентификатор кодека/Информация          : UTF-8 Plain Text
    Продолжительность                        : 2 ч. 14 м.
    Битрейт                                  : 39 бит/сек
    ElementCount                             : 1215
    Размер потока                            : 38,3 Кбайт (0%)
    Заголовок                                : ENG
    Язык                                     : English
    Default                                  : Нет
    Forced                                   : Нет

    Меню
    00:00:00.000                             : en:Overture
    00:06:30.390                             : en:Nativity Prologue
    00:11:37.697                             : en:Credits
    00:13:45.533                             : en:March Through Nazareth
    00:16:00.960                             : en:Messala In Command
    00:17:59.453                             : en:Fighting An Idea
    00:21:36.503                             : en:Still Close In Every Way
    00:25:17.515                             : en:A Toast
    00:28:43.847                             : en:Gifts Exchanged
    00:31:20.879                             : en:Judah"s Choice
    00:36:35.651                             : en:Esther"s Request
    00:40:36.976                             : en:A Ring For A Kiss
    00:45:12.126                             : en:March Into Jerusalem
    00:48:02.087                             : en:The Accident
    00:51:43.892                             : en:Jailbreak Attempt
    00:54:29.391                             : en:Making An Example
    00:58:05.482                             : en:Bondage
    01:01:07.538                             : en:Water From A Stranger
    01:05:41.437                             : en:Quintus Arrius
    01:10:16.378                             : en:Ramming Speed
    01:14:07.151                             : en:Strange, Stubborn Faith
    01:17:23.680                             : en:Sea Battle Begins
    01:21:23.461                             : en:Galley Rescues
    01:24:14.215                             : en:Saving Arrius
    01:26:19.215                             : en:Victory
    01:30:43.855                             : en:The Divine Emperor
    01:34:25.284                             : en:A Son Of Arrius
    01:38:33.657                             : en:Thinking Of Judea
    01:41:17.154                             : en:Balthazar And Ilderim
    01:45:41.293                             : en:Arabians Night
    01:50:22.616                             : en:Many Paths To God
    01:54:02.710                             : en:Homecoming
    01:58:09.040                             : en:Survivors Reunited
    02:02:30.384                             : en:"We Stood Here Before"
    02:06:12.147                             : en:Confronting Messala
    02:10:20.687                             : en:Finding Miriam And Tirzah
    02:12:48.043                             : en:Vow In The Darkness
    02:18:52.365                             : en:"Forget Messala"
    02:21:18.970                             : en:Intermission


    Скриншоты
    [img]http://img12.lostpic.net/2018/04/16/ea39c6d74e8ab1fb05fa0c08266b1492.png[/img][img]http://img12.lostpic.net/2018/04/16/b11ffb6f063f8836bee8c385007991de.png[/img][img]http://img12.lostpic.net/2018/04/16/f5c410023ba623e639dd623a47309b92.png[/img][img]http://img12.lostpic.net/2018/04/16/ca86fd8b7edf3e76e42929c7cddcbc8b.png[/img][img]http://img12.lostpic.net/2018/04/16/4c1a09182936348868da60f27f9d1a9d.png[/img][img]http://img12.lostpic.net/2018/04/16/ab553f0440e1201f3d68fbe677973ac7.png[/img]


    2-ая часть:
    Видео: 1920x696 (2,759), 9494 Кбит/сек, 0.296 бит/(Пиксели*Кадры), 23.976 (24000/1001) кадр/сек, HEVC (Main10@L.4.1@High) 10 бит
    Звук:
    Русская, AC3, 192 Кбит/сек, Front: L R, 48,0 КГц (Дубляж Варус Видео)
    Русская, AC3, 448 Кбит/сек, Front: L C R, Side: L R, LFE, 48,0 КГц (MVO SomeWax)
    Русская, AC3, 448 Кбит/сек, Front: L C R, Side: L R, LFE, 48,0 КГц (AVO Гаврилов)
    Русская, AC3, 448 Кбит/сек, Front: L C R, Side: L R, LFE, 48,0 КГц (AVO Живов)
    Английская, AC3, 448 Кбит/сек, Front: L C R, Side: L R, LFE, 48,0 КГц (Оригинал)
    Субтитры: Русские, английские
    Разделение по главам: есть

    Семпл 2-ая часть

    MediaInfo

    Общее
    Уникальный идентификатор                 : 306690071036574039370908881110276366458 (0xE6BA5BF0F69CE299F4198AC61FFDE07A)
    Полное имя                               : H:HEVC 210 BITBen-Hur 1959Ben-Gur_1959_Disc_2_BDRip_1080p_[HEVC]_10bit.mkv
    Формат                                   : Matroska
    Версия формата                           : Version 4 / Version 2
    Размер файла                             : 6,46 Гбайт
    Продолжительность                        : 1 ч. 20 м.
    Общий поток                              : 11,5 Мбит/сек
    Название фильма                          : HEVC by XuMuK
    Дата кодирования                         : UTC 2018-04-16 15:21:43
    Программа кодирования                    : mkvmerge v21.0.0 ("Tardigrades Will Inherit The Earth") 64-bit
    Библиотека кодирования                   : libebml v1.3.5 + libmatroska v1.4.8
    Обложка                                  : Yes
    Attachments                              : cover.jpg

    Видео
    Идентификатор                            : 1
    Формат                                   : HEVC
    Формат/Информация                        : High Efficiency Video Coding
    Профиль формата                          : Main 10@L4.1@High
    Идентификатор кодека                     : V_MPEGH/ISO/HEVC
    Продолжительность                        : 1 ч. 20 м.
    Битрейт                                  : 9494 Кбит/сек
    Ширина                                   : 1920 пикселей
    Высота                                   : 696 пикселей
    Соотношение сторон                       : 2,759
    Режим частоты кадров                     : Постоянный
    Частота кадров                           : 23,976 (24000/1001) кадра/сек
    Цветовое пространство                    : YUV
    Субдискретизация насыщенности            : 4:2:0
    Битовая глубина                          : 10 бит
    Бит/(Пиксели*Кадры)                      : 0.296
    Размер потока                            : 5,34 Гбайт (83%)
    Библиотека кодирования                   : x265 2.7+17-2e370d98c806:[Windows][GCC 8.0.1][64 bit] 10bit
    Настройки программы                      : cpuid=1173503 / frame-threads=4 / numa-pools=16 / wpp / no-pmode / no-pme / no-psnr / no-ssim / log-level=2 / input-csp=1 / input-res=1920x696 / interlace=0 / total-frames=115905 / level-idc=41 / high-tier=1 / uhd-bd=0 / ref=5 / no-allow-non-conformance / no-repeat-headers / annexb / no-aud / no-hrd / info / hash=0 / no-temporal-layers / open-gop / min-keyint=23 / keyint=240 / gop-lookahead=0 / bframes=8 / b-adapt=2 / no-b-pyramid / bframe-bias=0 / rc-lookahead=120 / lookahead-slices=0 / scenecut=40 / radl=0 / no-intra-refresh / ctu=64 / min-cu-size=8 / rect / amp / max-tu-size=32 / tu-inter-depth=3 / tu-intra-depth=3 / limit-tu=1 / rdoq-level=1 / dynamic-rd=0.00 / no-ssim-rd / signhide / no-tskip / nr-intra=0 / nr-inter=0 / no-constrained-intra / no-strong-intra-smoothing / max-merge=3 / limit-refs=2 / limit-modes / me=3 / subme=7 / merange=92 / temporal-mvp / weightp / weightb / no-analyze-src-pics / deblock=-3:-3 / no-sao / no-sao-non-deblock / rd=6 / no-early-skip / rskip / no-fast-intra / no-tskip-fast / no-cu-lossless / b-intra / no-splitrd-skip / rdpenalty=0 / psy-rd=2.00 / psy-rdoq=1.00 / no-rd-refine / no-lossless / cbqpoffs=-2 / crqpoffs=-2 / rc=crf / crf=18.0 / qcomp=0.60 / qpstep=4 / stats-write=0 / stats-read=0 / vbv-maxrate=50000 / vbv-bufsize=50000 / vbv-init=0.9 / crf-max=0.0 / crf-min=0.0 / ipratio=1.40 / pbratio=1.30 / aq-mode=1 / aq-strength=1.00 / cutree / zone-count=2 / zones: / start-frame=1 / end-frame=5576 / qp=35 / zones: / start-frame=115278 / end-frame=115905 / qp=35 / no-strict-cbr / qg-size=32 / no-rc-grain / qpmax=69 / qpmin=0 / no-const-vbv / sar=1 / overscan=0 / videoformat=5 / range=0 / colorprim=1 / transfer=1 / colormatrix=1 / chromaloc=0 / display-window=0 / max-cll=0,0 / min-luma=0 / max-luma=1023 / log2-max-poc-lsb=8 / vui-timing-info / vui-hrd-info / slices=1 / no-opt-qp-pps / no-opt-ref-list-length-pps / no-multi-pass-opt-rps / scenecut-bias=0.05 / no-opt-cu-delta-qp / no-aq-motion / no-hdr / no-hdr-opt / no-dhdr10-opt / no-idr-recovery-sei / analysis-reuse-level=5 / scale-factor=0 / refine-intra=0 / refine-inter=0 / refine-mv=0 / no-limit-sao / ctu-info=0 / no-lowpass-dct / refine-mv-type=0 / copy-pic=1 / max-ausize-factor=1.0 / no-dynamic-refine
    Default                                  : Да
    Forced                                   : Нет
    Цветовой диапазон                        : Limited
    Основные цвета                           : BT.709
    Характеристики трансфера                 : BT.709
    Коэффициенты матрицы                     : BT.709

    Аудио #1
    Идентификатор                            : 2
    Формат                                   : AC-3
    Формат/Информация                        : Audio Coding 3
    Идентификатор кодека                     : A_AC3
    Продолжительность                        : 1 ч. 20 м.
    Вид битрейта                             : Постоянный
    Битрейт                                  : 192 Кбит/сек
    Каналы                                   : 2 канала
    Расположение каналов                     : Front: L R
    Частота                                  : 48,0 КГц
    Частота кадров                           : 31,250 кадров/сек (1536 SPF)
    Битовая глубина                          : 16 бит
    Метод сжатия                             : С потерями
    Размер потока                            : 111 Мбайт (2%)
    Заголовок                                : Дубляж
    Язык                                     : Russian
    ServiceKind                              : Complete Main
    Default                                  : Да
    Forced                                   : Нет

    Аудио #2
    Идентификатор                            : 3
    Формат                                   : AC-3
    Формат/Информация                        : Audio Coding 3
    Идентификатор кодека                     : A_AC3
    Продолжительность                        : 1 ч. 20 м.
    Вид битрейта                             : Постоянный
    Битрейт                                  : 448 Кбит/сек
    Каналы                                   : 6 каналов
    Расположение каналов                     : Front: L C R, Side: L R, LFE
    Частота                                  : 48,0 КГц
    Частота кадров                           : 31,250 кадров/сек (1536 SPF)
    Битовая глубина                          : 16 бит
    Метод сжатия                             : С потерями
    Размер потока                            : 258 Мбайт (4%)
    Заголовок                                : MVO SOMEWAX
    Язык                                     : Russian
    ServiceKind                              : Complete Main
    Default                                  : Нет
    Forced                                   : Нет

    Аудио #3
    Идентификатор                            : 4
    Формат                                   : AC-3
    Формат/Информация                        : Audio Coding 3
    Идентификатор кодека                     : A_AC3
    Продолжительность                        : 1 ч. 20 м.
    Вид битрейта                             : Постоянный
    Битрейт                                  : 448 Кбит/сек
    Каналы                                   : 6 каналов
    Расположение каналов                     : Front: L C R, Side: L R, LFE
    Частота                                  : 48,0 КГц
    Частота кадров                           : 31,250 кадров/сек (1536 SPF)
    Битовая глубина                          : 16 бит
    Метод сжатия                             : С потерями
    Размер потока                            : 258 Мбайт (4%)
    Заголовок                                : AVO Гаврилов
    Язык                                     : Russian
    ServiceKind                              : Complete Main
    Default                                  : Нет
    Forced                                   : Нет

    Аудио #4
    Идентификатор                            : 5
    Формат                                   : AC-3
    Формат/Информация                        : Audio Coding 3
    Идентификатор кодека                     : A_AC3
    Продолжительность                        : 1 ч. 20 м.
    Вид битрейта                             : Постоянный
    Битрейт                                  : 448 Кбит/сек
    Каналы                                   : 6 каналов
    Расположение каналов                     : Front: L C R, Side: L R, LFE
    Частота                                  : 48,0 КГц
    Частота кадров                           : 31,250 кадров/сек (1536 SPF)
    Битовая глубина                          : 16 бит
    Метод сжатия                             : С потерями
    Размер потока                            : 258 Мбайт (4%)
    Заголовок                                : AVO Живов
    Язык                                     : Russian
    ServiceKind                              : Complete Main
    Default                                  : Нет
    Forced                                   : Нет

    Аудио #5
    Идентификатор                            : 6
    Формат                                   : AC-3
    Формат/Информация                        : Audio Coding 3
    Идентификатор кодека                     : A_AC3
    Продолжительность                        : 1 ч. 20 м.
    Вид битрейта                             : Постоянный
    Битрейт                                  : 448 Кбит/сек
    Каналы                                   : 6 каналов
    Расположение каналов                     : Front: L C R, Side: L R, LFE
    Частота                                  : 48,0 КГц
    Частота кадров                           : 31,250 кадров/сек (1536 SPF)
    Битовая глубина                          : 16 бит
    Метод сжатия                             : С потерями
    Размер потока                            : 258 Мбайт (4%)
    Заголовок                                : Оригинал
    Язык                                     : English
    ServiceKind                              : Complete Main
    Default                                  : Нет
    Forced                                   : Нет

    Текст #1
    Идентификатор                            : 7
    Формат                                   : UTF-8
    Идентификатор кодека                     : S_TEXT/UTF8
    Идентификатор кодека/Информация          : UTF-8 Plain Text
    Продолжительность                        : 1 ч. 14 м.
    Битрейт                                  : 40 бит/сек
    ElementCount                             : 435
    Размер потока                            : 22,0 Кбайт (0%)
    Заголовок                                : RUS
    Язык                                     : Russian
    Default                                  : Да
    Forced                                   : Нет

    Текст #2
    Идентификатор                            : 8
    Формат                                   : UTF-8
    Идентификатор кодека                     : S_TEXT/UTF8
    Идентификатор кодека/Информация          : UTF-8 Plain Text
    Продолжительность                        : 1 ч. 16 м.
    Битрейт                                  : 24 бит/сек
    ElementCount                             : 468
    Размер потока                            : 13,9 Кбайт (0%)
    Заголовок                                : ENG
    Язык                                     : English
    Default                                  : Нет
    Forced                                   : Нет

    Меню
    00:00:00.000                             : en:Entr"acte
    00:03:47.602                             : en:A Wager
    00:08:36.098                             : en:Chariot Practice
    00:10:48.564                             : en:"This Is The Day"
    00:15:06.071                             : en:Chariot Procession
    00:18:40.410                             : en:The Entrants
    00:20:40.781                             : en:Early Eliminations
    00:25:10.467                             : en:Neck And Neck
    00:29:01.656                             : en:Fallen Driver
    00:30:39.003                             : en:Judah Triumphant
    00:32:43.503                             : en:The Race Goes On
    00:38:12.540                             : en:Valley Of The Lepers
    00:40:28.425                             : en:"Is Judah Well?"
    00:44:57.903                             : en:Thirsty Still
    00:48:39.750                             : en:"I Am Judah Ben-Hur"
    00:52:34.818                             : en:Becoming Messala
    00:56:46.528                             : en:Recovering Miriam And Tirzah
    01:02:13.229                             : en:The Young Rabbi Sentenced
    01:05:25.796                             : en:An Offer Of Water
    01:09:40.926                             : en:The Crucifixion
    01:12:45.861                             : en:Cleansing Rain
    01:17:31.396                             : en:"Hallelujah!"


    Скриншоты
    [img]http://img12.lostpic.net/2018/04/16/807e7ffecd79b52e7b255f3e14c73578.png[/img][img]http://img12.lostpic.net/2018/04/16/be5706428bbb3743c39ee71a1e8af6a2.png[/img][img]http://img12.lostpic.net/2018/04/16/96a2c0b691f1858241a05e2a6e1269e0.png[/img][img]http://img12.lostpic.net/2018/04/16/ca86fd8b7edf3e76e42929c7cddcbc8b.png[/img][img]http://img12.lostpic.net/2018/04/16/9addf930385d1dbbf660815afc35e214.png[/img][img]http://img12.lostpic.net/2018/04/16/6bc505b1d710b972eff70f0f44d2529f.png[/img]
    Еще похожие »

    Как скачать?
    1. Качаем UTorrent версии 2.0 и выше отсюда
    2. После установки, жмем на ссылку Скачать торрент.
    3. Открываем его через utorrent.
    4. Ждем пока подключатся участники.
    5. Качаем.


    Комментарии о Бен-Гур / Ben-Hur | BDRip-HEVC 1080p
    Добавлять комментарии могут только зарегистрированные пользователи

    Зарегистрироваться или Войти


    Ближайшее в кино
    • Клуб миллиардеров дата выхода 19 июля 2018Клуб миллиардеров
      Дата выхода: 19 июля 2018
    • 848004|Паранормальное|19 июля 2018|200|300Паранормальное
      Дата выхода: 19 июля 2018
    • 993589|Килиманджара|19 июля 2018|200|300Килиманджара
      Дата выхода: 19 июля 2018
    • 1002560|Зои|19 июля 2018|200|300Зои
      Дата выхода: 19 июля 2018
    • 1025011|Офисный беспредел|19 июля 2018|200|300Офисный беспредел
      Дата выхода: 19 июля 2018
    • 1024435|Это чертово сердце|19 июля 2018|200|300Это чертово сердце
      Дата выхода: 19 июля 2018
    • 1169286|МУЛЬТ в кино. Выпуск №78. Наше лето!|21 июля 2018|200|300МУЛЬТ в кино. Выпуск №78. Наше лето!
      Дата выхода: 21 июля 2018
    • 926540|Миссия невыполнима: Последствия|26 июля 2018|200|300Миссия невыполнима: Последствия
      Дата выхода: 26 июля 2018
    • 992614|Обитатели|26 июля 2018|200|300Обитатели
      Дата выхода: 26 июля 2018
    • 854458|Белль и Себастьян: Приключения продолжаются|26 июля 2018|200|300Белль и Себастьян: Приключения продолжаются
      Дата выхода: 26 июля 2018
    • 1049478|Убежище дьявола|26 июля 2018|200|300Убежище дьявола
      Дата выхода: 26 июля 2018
    • 1008732|Мектуб, моя любовь|26 июля 2018|200|300Мектуб, моя любовь
      Дата выхода: 26 июля 2018
    • 1049447|Юные титаны, вперед!|26 июля 2018|200|300Юные титаны, вперед!
      Дата выхода: 26 июля 2018
    • 1067608|Свидетели|26 июля 2018|200|300Свидетели
      Дата выхода: 26 июля 2018
    • 933307|Опасная игра Слоун|2 августа 2018|200|300Опасная игра Слоун
      Дата выхода: 2 августа 2018
    Вверх