• Игры для PS3
  • Игры для XBOX360
  • Игры для PC
  • Игры для PS2
  • Игры для PSP
  • Для телефонов
  • Музыка
  • Книги/Журналы
  • Обои
  •  
    Опрос
    Откуда Вы о нас узнали?
      0
    • От знакомых2,1,false,300,full
    • Из социальных сетей2,2,false,300,full
    • Из поисковых систем2,3,false,300,full
    • Другое2,4,false,300,full
    Статистика
    Загрузка...
    Падение Трои / Troy: Fall of a City [Сезон 01 | 01 серия из 08] | HDTVRip 1080p
    Статус  Проверено
    В закладки
    Модератор: Max

    Падение Трои / Troy: Fall of a City [Сезон 01 | 01 серия из 08] | HDTVRip 1080p [Сериалы 2018] скачать торрентом/torrent бесплатно

    Год выхода
    Категории
    Язык
    Закачал
    Max | 16 апреля в 20ч 11м 07с
    Раздел
    Отзывов
    0
    Раздают: 10 Качают: 3 Скачали: 68 Размер: 3.52 GB
    Инфо о раздаче | Благодарности |
    0/5
    0
    0 5 0
    Поддержи нас — расскажи друзьям!
    Orbitum
    Новый интернет-браузер Быстрее загружает сайты Экономит интернет—трафик Меняет оформление страницы ВК Блокирует всю рекламу на сайтах Загружает торренты как

    µTorrent

    клиент
    Объеденяет все твои чаты из соц. сетей в один Проигрывает твою музыку не заходя во ВКонтакте
    Скачать и многое другое... Подробности на сайте производителя
    Информация о фильме
    Название: Падение Трои
    Оригинальное название: Troy: Fall of a City
    Год выхода: 2018
    Жанр: боевик, военный
    Режиссеры: Марк Брозел, Оуэн Харрис, Джон Стриклэнд
    В ролях: Луис Хантер, Кристиан Шумби, Джонас Армстронг, Дэвид Крисанту, Карл Бьюкс, Гарт Брейтенбах, Альфред Энок, Крис Фишер, Дэвид Гяси, Джонни Харрис

    О фильме:
    В центре событий грандиозной эпопеи — десятилетняя осада ахейцами великой Трои. Это история любви, мужества, интриг и предательства, рассказанная от лица царской семьи. Это история о людях, старающихся сохранить достоинство и сострадание в условиях кровопролитной войны.

    [img]https://u.myshows.me/r/56557.png[/img][img]http://www.kinopoisk.ru/rating/1112753.gif[/img]
    Страна: США
    Продолжительность: ~ 01:00:00 (серия)
    Перевод: Любительский (многоголосый, закадровый) | Flarrow Films

    Файл
    Формат: MKV
    Кодек: MPEG-4 AVC
    Качество: WEBRip 1080p
    Видео:   ~6 913 kb/s, 1920x1080, 25.000 fps
    Звук: PCM (A_PCM/INT/LIT), 48 kHz, 2 ch, ~1 536 kb/s
    Субтитры: отсутствуют



    MediaInfo

    General
    Unique ID                   : 227474427467899083136338494891034244870 (0xAB21FB2C457607149C2400EBD0617706)
    Complete name               : D:DownloadsSerialsTroy.Fall.of.a.City.S01.Flarrow.Films.[free-tor]Troy.Fall.of.a.City.S01.E01.Flarrow.Films.[free-tor].mkv
    Format                      : Matroska
    Format version              : Version 4 / Version 2
    File size                   : 3.52 GiB
    Duration                    : 59 min 37 s
    Overall bit rate            : 8 450 kb/s
    Encoded date                : UTC 2018-04-15 16:15:27
    Writing application         : mkvmerge v8.3.0 ("Over the Horizon") 64bit
    Writing library             : libebml v1.3.1 + libmatroska v1.4.2

    Video
    ID                          : 1
    Format                      : AVC
    Format/Info                 : Advanced Video Codec
    Format profile              : High@L4.1
    Format settings             : CABAC / 4 Ref Frames
    Format settings, CABAC      : Yes
    Format settings, ReFrames   : 4 frames
    Codec ID                    : V_MPEG4/ISO/AVC
    Duration                    : 59 min 37 s
    Bit rate                    : 6 913 kb/s
    Width                       : 1 920 pixels
    Height                      : 1 080 pixels
    Display aspect ratio        : 16:9
    Frame rate mode             : Constant
    Frame rate                  : 25.000 FPS
    Color space                 : YUV
    Chroma subsampling          : 4:2:0
    Bit depth                   : 8 bits
    Scan type                   : Progressive
    Bits/(Pixel*Frame)          : 0.133
    Stream size                 : 2.88 GiB (82%)
    Writing library             : x264 core 152 r2851 ba24899
    Encoding settings           : cabac=1 / ref=4 / deblock=1:0:0 / analyse=0x3:0x113 / me=hex / subme=8 / psy=1 / psy_rd=1.00:0.00 / mixed_ref=1 / me_range=16 / chroma_me=1 / trellis=2 / 8x8dct=1 / cqm=0 / deadzone=21,11 / fast_pskip=1 / chroma_qp_offset=-2 / threads=18 / lookahead_threads=3 / sliced_threads=0 / nr=0 / decimate=1 / interlaced=0 / bluray_compat=0 / constrained_intra=0 / bframes=3 / b_pyramid=2 / b_adapt=1 / b_bias=0 / direct=3 / weightb=1 / open_gop=0 / weightp=2 / keyint=250 / keyint_min=25 / scenecut=40 / intra_refresh=0 / rc_lookahead=50 / rc=crf / mbtree=1 / crf=17.0 / qcomp=0.60 / qpmin=0 / qpmax=69 / qpstep=4 / ip_ratio=1.40 / aq=1:1.00
    Default                     : Yes
    Forced                      : No
    Color range                 : Limited
    Color primaries             : BT.709
    Transfer characteristics    : BT.709
    Matrix coefficients         : BT.709

    Audio
    ID                          : 2
    Format                      : PCM
    Format settings             : Little / Signed
    Codec ID                    : A_PCM/INT/LIT
    Duration                    : 59 min 37 s
    Bit rate mode               : Constant
    Bit rate                    : 1 536 kb/s
    Channel(s)                  : 2 channels
    Sampling rate               : 48.0 kHz
    Frame rate                  : 32.000 FPS (1500 SPF)
    Bit depth                   : 16 bits
    Stream size                 : 655 MiB (18%)
    Default                     : Yes
    Forced                      : No



    Перевод: Lunar Arrow
    Роли озвучивали: Дмитрий Лунёв, Максим Жидков, Александр Байсаров, Кристина Шерман, Pandora, Okana Tsoy, Lunar Arrow, MFre, hAl и LDream..

    [img]http://d.radikal.ru/d33/1802/bf/30527bfba9cd.png[/img]
    Еще похожие »

    Как скачать?
    1. Качаем UTorrent версии 2.0 и выше отсюда
    2. После установки, жмем на ссылку Скачать торрент.
    3. Открываем его через utorrent.
    4. Ждем пока подключатся участники.
    5. Качаем.


    Комментарии о Падение Трои / Troy: Fall of a City [Сезон 01 | 01 серия из 08] | HDTVRip 1080p
    Добавлять комментарии могут только зарегистрированные пользователи

    Зарегистрироваться или Войти


    Ближайшее в кино
    • Привидение дата выхода 26 апреля 2018Привидение
      Дата выхода: 26 апреля 2018
    • 1045590|Правда или действие|26 апреля 2018|200|300Правда или действие
      Дата выхода: 26 апреля 2018
    • 841470|Смешарики. Дежавю|26 апреля 2018|200|300Смешарики. Дежавю
      Дата выхода: 26 апреля 2018
    • 1046545|Танки|26 апреля 2018|200|300Танки
      Дата выхода: 26 апреля 2018
    • 1027311|Дыши во мгле|26 апреля 2018|200|300Дыши во мгле
      Дата выхода: 26 апреля 2018
    • 959260|Миссис Хайд|26 апреля 2018|200|300Миссис Хайд
      Дата выхода: 26 апреля 2018
    • 845128|Я заберу твои деньги|26 апреля 2018|200|300Я заберу твои деньги
      Дата выхода: 26 апреля 2018
    • 1112036|Лицо|26 апреля 2018|200|300Лицо
      Дата выхода: 26 апреля 2018
    • 1076322|Великолепная|26 апреля 2018|200|300Великолепная
      Дата выхода: 26 апреля 2018
    • 1110934|Золушка|28 апреля 2018|200|300Золушка
      Дата выхода: 28 апреля 2018
    • 1115701|МУЛЬТ в кино. Выпуск №74. Планета Май!|28 апреля 2018|200|300МУЛЬТ в кино. Выпуск №74. Планета Май!
      Дата выхода: 28 апреля 2018
    • 928533|Папа-мама гусь|1 мая 2018|200|300Папа-мама гусь
      Дата выхода: 1 мая 2018
    • 843649|Мстители: Война бесконечности|3 мая 2018|200|300Мстители: Война бесконечности
      Дата выхода: 3 мая 2018
    • 939785|Остров собак|3 мая 2018|200|300Остров собак
      Дата выхода: 3 мая 2018
    • 905031|Собибор|3 мая 2018|200|300Собибор
      Дата выхода: 3 мая 2018
    Вверх