• Игры для PS4
  • Игры для PS3
  • Игры для XBOX360
  • Игры для PC
  • Игры для PS2
  • Игры для PSP
  • Для телефонов
  • Музыка
  • Книги/Журналы
  • Обои
  •  
    Опрос
    Откуда Вы о нас узнали?
      0
    • От знакомых2,1,false,300,full
    • Из социальных сетей2,2,false,300,full
    • Из поисковых систем2,3,false,300,full
    • Другое2,4,false,300,full
    Статистика
    Загрузка...
    Призрачная нить / Phantom Thread | BDRip-AVC
    Статус  Проверено
    В закладки
    Модератор: Max

    Призрачная нить / Phantom Thread | BDRip-AVC [Фильмы 2017] скачать торрентом/torrent бесплатно

    Год выхода
    Категории
    Язык
    Закачал
    Max | 16 апреля в 20ч 12м 01с
    Раздел
    Отзывов
    0
    Раздают: 3 Качают: 0 Скачали: 376 Размер: 2.93 GB
    Инфо о раздаче | Благодарности |
    0/5
    0
    0 5 0
    Поддержи нас — расскажи друзьям!
    Orbitum
    Новый интернет-браузер Быстрее загружает сайты Экономит интернет—трафик Меняет оформление страницы ВК Блокирует всю рекламу на сайтах Загружает торренты как

    µTorrent

    клиент
    Объеденяет все твои чаты из соц. сетей в один Проигрывает твою музыку не заходя во ВКонтакте
    Скачать и многое другое... Подробности на сайте производителя
    Призрачная нить / Phantom Thread

    Год выпуска: 2017
    Страна: США
    Производство: Annapurna Pictures
    Жанр:  Драма

    Режиссёр: Пол Томас Андерсон
    В ролях:  Дэниэл Дэй-Льюис, Вики Крипс, Лесли Мэнвилл, Сью Кларк, Джоан Браун, Харриет Лейч, Дина Николсон, Джули Дак, Мэриэнн Фрост, Элли Бэнкс

    Перевод: Любительский (многоголосый, закадровый) | @MUZOBOZ@
    Субтитры: Русские, английские
    Реклама: Отсутствует

    Описание: В Лондоне 1950-х годов знаменитый кутюрье Рейнольдс Вудкок создает неповторимые образы для королевской семьи, звезд кино, богатых наследниц и светских львиц. Жизнь гения радикально меняется с появлением молодой своенравной Альмы, которая становится его музой.



    Качество: BDRip-AVC
    Продолжительность: 02:10:07

    Формат: MKV
    Видео кодек: MPEG-4 AVC
    Аудио кодек: AC3
    Видео: 1024x554 (1,85:1), 23,976 fps, x264 ~2 393 kbps avg, 0.176 bit/pixel
    Аудио #1: 48 kHz, AC3 Dolby Digital, 3/2 (L,C,R,l,r), ~384.00 kbps avg | RUS | MVO (@MUZOBOZ@)
    Аудио #2: 48 kHz, AC3 Dolby Digital, 3/2 (L,C,R,l,r) + LFE ch, ~448.00 kbps avg | ENG

    Дата премьеры (мир): 24 ноября 2017
    Дата премьеры (РФ): 15 февраля 2018, «UPI»

    MediaInfo

    Общее
    Уникальный идентификатор                 : 233905538376182290486195747779644609029 (0xAFF8916BD5943075AE25C7613661D205)
    Полное имя                               : E:OlLanDGroupPhantom.Thread.2017.BDRip(AVC).OlLanDGroup.mkv
    Формат                                   : Matroska
    Версия формата                           : Version 2
    Размер файла                             : 2,93 Гбайт
    Продолжительность                        : 2 ч. 10 м.
    Общий поток                              : 3227 Кбит/сек
    Название фильма                          : Phantom.Thread.2017   #TorpedoUK#
    Дата кодирования                         : UTC 2018-04-16 15:45:16
    Программа кодирования                    : mkvmerge v7.8.0 ("River Man") 32bit built on Apr  3 2015 12:11:22
    Библиотека кодирования                   : libebml v1.3.1 + libmatroska v1.4.2
    Обложка                                  : Yes
    Attachments                              : small_cover.jpg / small_cover_land.jpg / cover.jpg / cover_land.jpg

    Видео
    Идентификатор                            : 1
    Формат                                   : AVC
    Формат/Информация                        : Advanced Video Codec
    Профиль формата                          : High@L4.1
    Параметр CABAC формата                   : Да
    Параметр ReFrames формата                : 10 кадров
    Идентификатор кодека                     : V_MPEG4/ISO/AVC
    Продолжительность                        : 2 ч. 10 м.
    Битрейт                                  : 2393 Кбит/сек
    Ширина                                   : 1024 пикселя
    Высота                                   : 554 пикселя
    Соотношение сторон                       : 1,85:1
    Режим частоты кадров                     : Постоянный
    Частота кадров                           : 23,976 (24000/1001) кадра/сек
    Цветовое пространство                    : YUV
    Субдискретизация насыщенности            : 4:2:0
    Битовая глубина                          : 8 бит
    Тип развёртки                            : Прогрессивная
    Бит/(Пиксели*Кадры)                      : 0.176
    Размер потока                            : 2,12 Гбайт (72%)
    Библиотека кодирования                   : x264 core 146 r2538 121396c
    Настройки программы                      : cabac=1 / ref=10 / deblock=1:-2:-3 / analyse=0x3:0x133 / me=umh / subme=11 / psy=1 / psy_rd=0.95:0.10 / mixed_ref=1 / me_range=48 / chroma_me=1 / trellis=2 / 8x8dct=1 / cqm=0 / deadzone=21,11 / fast_pskip=1 / chroma_qp_offset=-3 / threads=6 / lookahead_threads=1 / sliced_threads=0 / nr=0 / decimate=1 / interlaced=0 / bluray_compat=0 / constrained_intra=0 / bframes=10 / b_pyramid=2 / b_adapt=2 / b_bias=0 / direct=3 / weightb=1 / open_gop=0 / weightp=2 / keyint=240 / keyint_min=23 / scenecut=40 / intra_refresh=0 / rc_lookahead=40 / rc=2pass / mbtree=0 / bitrate=2393 / ratetol=1.0 / qcomp=0.60 / qpmin=0 / qpmax=69 / qpstep=4 / cplxblur=20.0 / qblur=0.5 / vbv_maxrate=50000 / vbv_bufsize=62500 / nal_hrd=none / filler=0 / ip_ratio=1.40 / pb_ratio=1.30 / aq=1:1.00
    Язык                                     : English
    Default                                  : Да
    Forced                                   : Нет

    Аудио #1
    Идентификатор                            : 2
    Формат                                   : AC-3
    Формат/Информация                        : Audio Coding 3
    Расширение режима                        : CM (complete main)
    Параметр Endianness формата              : Big
    Идентификатор кодека                     : A_AC3
    Продолжительность                        : 2 ч. 10 м.
    Вид битрейта                             : Постоянный
    Битрейт                                  : 384 Кбит/сек
    Каналы                                   : 6 каналов
    Расположение каналов                     : Front: L C R, Side: L R, LFE
    Частота                                  : 48,0 КГц
    Частота кадров                           : 31,250 кадров/сек (1536 spf)
    Битовая глубина                          : 16 бит
    Метод сжатия                             : С потерями
    Размер потока                            : 357 Мбайт (12%)
    Заголовок                                : MVO (@MUZOBOZ@)
    Язык                                     : Russian
    Default                                  : Да
    Forced                                   : Нет

    Аудио #2
    Идентификатор                            : 3
    Формат                                   : AC-3
    Формат/Информация                        : Audio Coding 3
    Расширение режима                        : CM (complete main)
    Параметр Endianness формата              : Big
    Идентификатор кодека                     : A_AC3
    Продолжительность                        : 2 ч. 10 м.
    Вид битрейта                             : Постоянный
    Битрейт                                  : 448 Кбит/сек
    Каналы                                   : 6 каналов
    Расположение каналов                     : Front: L C R, Side: L R, LFE
    Частота                                  : 48,0 КГц
    Частота кадров                           : 31,250 кадров/сек (1536 spf)
    Битовая глубина                          : 16 бит
    Метод сжатия                             : С потерями
    Размер потока                            : 417 Мбайт (14%)
    Заголовок                                : Original
    Язык                                     : English
    Default                                  : Нет
    Forced                                   : Нет

    Текст #1
    Идентификатор                            : 4
    Формат                                   : UTF-8
    Идентификатор кодека                     : S_TEXT/UTF8
    Идентификатор кодека/Информация          : UTF-8 Plain Text
    Заголовок                                : Full
    Язык                                     : Russian
    Default                                  : Нет
    Forced                                   : Нет

    Текст #2
    Идентификатор                            : 5
    Формат                                   : UTF-8
    Идентификатор кодека                     : S_TEXT/UTF8
    Идентификатор кодека/Информация          : UTF-8 Plain Text
    Заголовок                                : Full
    Язык                                     : English
    Default                                  : Нет
    Forced                                   : Нет

    Текст #3
    Идентификатор                            : 6
    Формат                                   : UTF-8
    Идентификатор кодека                     : S_TEXT/UTF8
    Идентификатор кодека/Информация          : UTF-8 Plain Text
    Заголовок                                : SDH
    Язык                                     : English
    Default                                  : Нет
    Forced                                   : Нет

    Меню
    00:00:00.000                             : en:Chapter 01
    00:05:45.636                             : en:Chapter 02
    00:11:05.665                             : en:Chapter 03
    00:15:52.159                             : en:Chapter 04
    00:24:00.355                             : en:Chapter 05
    00:31:02.443                             : en:Chapter 06
    00:35:57.613                             : en:Chapter 07
    00:39:49.804                             : en:Chapter 08
    00:44:24.328                             : en:Chapter 09
    00:47:45.654                             : en:Chapter 10
    00:56:30.678                             : en:Chapter 11
    01:02:14.647                             : en:Chapter 12
    01:10:49.954                             : en:Chapter 13
    01:20:55.392                             : en:Chapter 14
    01:25:32.669                             : en:Chapter 15
    01:34:43.803                             : en:Chapter 16
    01:37:20.876                             : en:Chapter 17
    01:42:04.034                             : en:Chapter 18
    01:48:16.031                             : en:Chapter 19
    01:59:34.750                             : en:Chapter 20


    Скриншоты

    [img]http://lostpix.com/img/2018-04/16/378yoenba0jq3xhs70x5ocmzl.jpg[/img][img]http://lostpix.com/img/2018-04/16/r9r2hkxfhltmzvmy54qra9oav.jpg[/img]
    [img]http://lostpix.com/img/2018-04/16/joyvdacr4k3qp039mrtzgosw7.jpg[/img][img]http://lostpix.com/img/2018-04/16/tvlthu86fb7idnbogs4gk2s3l.jpg[/img]
    [img]http://lostpix.com/img/2018-04/16/h01zvwih93oszky2h76u9j2qc.jpg[/img][img]http://lostpix.com/img/2018-04/16/825pugwt7mftvnrn20dcy5ju1.jpg[/img]
    Еще похожие »

    Как скачать?
    1. Качаем UTorrent версии 2.0 и выше отсюда
    2. После установки, жмем на ссылку Скачать торрент.
    3. Открываем его через utorrent.
    4. Ждем пока подключатся участники.
    5. Качаем.


    Комментарии о Призрачная нить / Phantom Thread | BDRip-AVC
    Добавлять комментарии могут только зарегистрированные пользователи

    Зарегистрироваться или Войти


    Ближайшее в кино
    • Клуб миллиардеров дата выхода 19 июля 2018Клуб миллиардеров
      Дата выхода: 19 июля 2018
    • 848004|Паранормальное|19 июля 2018|200|300Паранормальное
      Дата выхода: 19 июля 2018
    • 993589|Килиманджара|19 июля 2018|200|300Килиманджара
      Дата выхода: 19 июля 2018
    • 1002560|Зои|19 июля 2018|200|300Зои
      Дата выхода: 19 июля 2018
    • 1025011|Офисный беспредел|19 июля 2018|200|300Офисный беспредел
      Дата выхода: 19 июля 2018
    • 1024435|Это чертово сердце|19 июля 2018|200|300Это чертово сердце
      Дата выхода: 19 июля 2018
    • 1169286|МУЛЬТ в кино. Выпуск №78. Наше лето!|21 июля 2018|200|300МУЛЬТ в кино. Выпуск №78. Наше лето!
      Дата выхода: 21 июля 2018
    • 926540|Миссия невыполнима: Последствия|26 июля 2018|200|300Миссия невыполнима: Последствия
      Дата выхода: 26 июля 2018
    • 992614|Обитатели|26 июля 2018|200|300Обитатели
      Дата выхода: 26 июля 2018
    • 854458|Белль и Себастьян: Приключения продолжаются|26 июля 2018|200|300Белль и Себастьян: Приключения продолжаются
      Дата выхода: 26 июля 2018
    • 1049478|Убежище дьявола|26 июля 2018|200|300Убежище дьявола
      Дата выхода: 26 июля 2018
    • 1008732|Мектуб, моя любовь|26 июля 2018|200|300Мектуб, моя любовь
      Дата выхода: 26 июля 2018
    • 1049447|Юные титаны, вперед!|26 июля 2018|200|300Юные титаны, вперед!
      Дата выхода: 26 июля 2018
    • 1067608|Свидетели|26 июля 2018|200|300Свидетели
      Дата выхода: 26 июля 2018
    • 933307|Опасная игра Слоун|2 августа 2018|200|300Опасная игра Слоун
      Дата выхода: 2 августа 2018
    Вверх