• Игры для PS4
  • Игры для PS3
  • Игры для XBOX360
  • Игры для PC
  • Игры для PS2
  • Игры для PSP
  • Для телефонов
  • Музыка
  • Книги/Журналы
  • Обои
  •  
    Опрос
    Откуда Вы о нас узнали?
      0
    • От знакомых2,1,false,300,full
    • Из социальных сетей2,2,false,300,full
    • Из поисковых систем2,3,false,300,full
    • Другое2,4,false,300,full
    Статистика
    Загрузка...
    Смурфики / The Smurfs | BDRemux
    Статус  Проверено
    В закладки
    Модератор: Max

    Смурфики / The Smurfs | BDRemux [Фильмы 2011] скачать торрентом/torrent бесплатно

    Год выхода
    Язык
    Закачал
    Аноним | 16 апреля в 20ч 40м 38с
    Раздел
    Отзывов
    0
    Раздают: 2 Качают: 0 Скачали: 2 Размер: 51.11 GB
    Инфо о раздаче | Благодарности |
    0/5
    0
    0 5 0
    Поддержи нас — расскажи друзьям!
    Orbitum
    Новый интернет-браузер Быстрее загружает сайты Экономит интернет—трафик Меняет оформление страницы ВК Блокирует всю рекламу на сайтах Загружает торренты как

    µTorrent

    клиент
    Объеденяет все твои чаты из соц. сетей в один Проигрывает твою музыку не заходя во ВКонтакте
    Скачать и многое другое... Подробности на сайте производителя
    Смурфики
    The Smurfs
    «Какого "смурфа" мы тут делаем?»

    Информация о фильме
    Название: Смурфики
    Оригинальное название: The Smurfs
    Год выпуска: 2011
    Жанр:  Мультфильм, фэнтези, семейный
    Выпущено: США, Бельгия
    Режиссер: Раджа Госнелл
    В ролях: Хэнк Азария, Нил Патрик Харрис, Джейма Мейс, София Вергара, Джонатан Уинтерс, Алан Камминг, Кэти Перри, Фред Армизен, Джордж Лопез, Антон Ельчин, Тим Ганн, Мэдисон МакКинли, Мэг Филлипс, Джули Чанг, Роджер Кларк, Марк Доэрти, Мингли Чен, Шон Кенин, Виктор Паган, Адриа Баратта, Паула Пицци, Эндрю Селлон, Джулианна Ригоглиосо, Брэдли Госнелл, Хайди Армбрустер, Джон Спередакос, Алекс Холл, Джо Гонзалез, Скотт Диллин
    Продолжительность: 01:42:43

    Описание:
    По сюжету, спасаясь от злого волшебника Гаргамеля, крошечные смурфики оказываются за пределами родной деревни. Из своего волшебного мира они попадают прямиком в наш мир, а именно в Центральный парк города Нью-Йорк. Теперь маленьким отважным смурфикам предстоит отыскать дорогу домой и не попасть в лапы Гаргамеля.



    Файл
    Контейнер: MKV
    Качество: Blu-Ray Remux (2160p)
    Видео: HEVC, 59.9 Мбит/сек, 3840x2160, 23.976 кадр/с

    Аудио #1: |RUS| DTS-HD MA, 48.0 kHz, 6 ch, 4 529 kb/s | Дублированный |
    Аудио #2: |RUS| AC-3, 48.0 kHz, 6 ch, 640 kb/s, CBR | Дублированный |
    Аудио #3: |UKR| AC-3, 48.0 kHz, 6 ch, 640 kb/s, CBR | Дублированный |
    Аудио #4: |ENG| TrueHD+Atmos, 48.0 kHz, 8 ch, 4 697 kb/s | Original |
    Аудио #5: |ENG| AC-3, 48.0 kHz, 6 ch, 640 kb/s, CBR | Original, AC3 Core |

    Субтитры: Russian(Forced, Full), Ukrainian (Forced), English (Forced, Full, Commentary)



    Интересно

    JimmyMorisson
    рецензии (1) оценки
    Хочу в Смурфляндию!!!
    На «Смурфов» решили с сыном пойти сразу после того, как увидели афишу. Дело в том, что как раз три месяца назад я скачал бельгийский сериал «Смурфы» конца 80-х годов, и мы с удовольствием смотрели его вечерами перед сном. Такое вот совпадение, только мы досмотрели сериал про смурфиков, сразу оказалось они будут в полнометражном анимационном фильме в кинотеатре. Мультсериал тоже интересный, весёлый, если проводить антологию сюжета, то можно сравнить с «Мишками Гамми».
    Сразу скажу, что смурфики в кино мне очень понравились, фильм полностью оправдал мои ожидания, даже больше того, если учитывать восхищённые отзывы и радостные глаза сына в течении дня после просмотра.
    Наверное, чтобы такие мульто-фильмы нравились, нужно просто на время просмотра опять почувствовать себя ребёнком: весёлым затейником, беззаботным фантазёром, представить волшебную страну Смурфляндию и захотеть побыть одним из этих миленьких синеньких гномиков.
    Сам фильм снят очень хорошо, сцены красивые, яркие особенно понравилась деревня смурфиков, пейзажи волшебного леса. Игра актёров в целом тоже хороша, больше всех понравился Хенк Азария в роли злого колдуна Гаргамеля.
    Сюжет хоть и немного шаблонный, но, в общем-то, воспринимается легко и непринуждённо.
    Люди, это же детское кино, и писать, что сюжет простой и предсказуемый как-то пошло. Хотите сложного и непонятного сюжета смотрите «Голову-ластик» Девида Линча, «Антихриста» Ларса Фон Триера и более 1000 других хороших сложных, заставляющихся задуматься фильмов.
    А этот фильм лёгкий, приятный, радостный, заряжающий позитивной энергией на весь день. Я после выхода из кинотеатра чувствовал себя ребёнком, мы с сыном побежали есть мороженное, а потом пошли в парк отдыха кататься на аттракционах.
    В общем, спасибо создателям фильма за отличную работу! Надеюсь будет продолжение, где хотелось бы увидеть интересные приключения Смурфиков, но уже не в Нью-Йорке, а в сказочном лесу, в средневековых замках среди рыцарей, разбойников и прекрасных леди.
    10 из 10



    MI

    Общее
    Уникальный идентификатор                 : 45538477386256526444620770534393035443 (0x22426447E497DF48786F376CE3B6BAB3)
    Полное имя                               : The.Smurfs.2011.UHD.BDRemux.2160p.HEVC.HDR.IVA(RUS.UKR.ENG).ExKinoRay.mkv
    Формат                                   : Matroska
    Версия формата                           : Version 4 / Version 2
    Размер файла                             : 51,1 Гбайт
    Продолжительность                        : 1 ч. 42 м.
    Режим общего битрейта                    : Переменный
    Общий поток                              : 71,1 Мбит/сек
    Название фильма                          : Смурфики / The Smurfs ( 2011 )  BDRemux | HDR, 4K | IVA(RUS.UKR.ENG) | ExKinoRay
    Дата кодирования                         : UTC 2018-04-16 14:44:02
    Программа кодирования                    : mkvmerge v22.0.0 ("At The End Of The World") 64-bit
    Библиотека кодирования                   : libebml v1.3.5 + libmatroska v1.4.8
    Обложка                                  : Yes

    Видео
    Идентификатор                            : 1
    Формат                                   : HEVC
    Формат/Информация                        : High Efficiency Video Coding
    Коммерческое название                    : HDR10
    Профиль формата                          : Main 10@L5.1@High
    Идентификатор кодека                     : V_MPEGH/ISO/HEVC
    Продолжительность                        : 1 ч. 42 м.
    Битрейт                                  : 59,9 Мбит/сек
    Ширина                                   : 3840 пикселей
    Высота                                   : 2160 пикселей
    Соотношение сторон                       : 16:9
    Режим частоты кадров                     : Постоянный
    Частота кадров                           : 23,976 (24000/1001) кадра/сек
    Цветовое пространство                    : YUV
    Субдискретизация насыщенности            : 4:2:0 (Type 2)
    Битовая глубина                          : 10 бит
    Бит/(Пиксели*Кадры)                      : 0.301
    Размер потока                            : 43,0 Гбайт (84%)
    Заголовок                                : MPEG-H HEVC Video / 59939 kbps / 2160p / HDR / BT.2020
    Язык                                     : English
    Default                                  : Да
    Forced                                   : Нет
    Цветовой диапазон                        : Limited
    Основные цвета                           : BT.2020
    Характеристики трансфера                 : PQ
    Коэффициенты матрицы                     : BT.2020 non-constant
    MasteringDisplay_ColorPrimaries          : BT.709
    MasteringDisplay_Luminance               : min: 0.0050 cd/m2, max: 4000 cd/m2
    MaxCLL                                   : 1333 cd/m2
    MaxFALL                                  : 472 cd/m2

    Аудио #1
    Идентификатор                            : 2
    Формат                                   : DTS
    Формат/Информация                        : Digital Theater Systems
    Профиль формата                          : MA / Core
    Идентификатор кодека                     : A_DTS
    Продолжительность                        : 1 ч. 42 м.
    Вид битрейта                             : Переменный / Постоянный
    Битрейт                                  : 4529 Кбит/сек / 1509 Кбит/сек
    Каналы                                   : 6 каналов
    Расположение каналов                     : Front: L C R, Side: L R, LFE
    Частота                                  : 48,0 КГц
    Частота кадров                           : 93,750 кадра/сек (512 SPF)
    Битовая глубина                          : 24 бит
    Метод сжатия                             : Без потерь / Lossy
    Размер потока                            : 3,26 Гбайт (6%)
    Заголовок                                : | Дублированный |
    Язык                                     : Russian
    Default                                  : Да
    Forced                                   : Нет

    Аудио #2
    Идентификатор                            : 3
    Формат                                   : AC-3
    Формат/Информация                        : Audio Coding 3
    Идентификатор кодека                     : A_AC3
    Продолжительность                        : 1 ч. 42 м.
    Вид битрейта                             : Постоянный
    Битрейт                                  : 640 Кбит/сек
    Каналы                                   : 6 каналов
    Расположение каналов                     : Front: L C R, Side: L R, LFE
    Частота                                  : 48,0 КГц
    Частота кадров                           : 31,250 кадров/сек (1536 SPF)
    Битовая глубина                          : 16 бит
    Метод сжатия                             : С потерями
    Размер потока                            : 470 Мбайт (1%)
    Заголовок                                : | Дублированный |
    Язык                                     : Russian
    ServiceKind                      : Complete Main
    Default                                  : Нет
    Forced                                   : Нет

    Аудио #3
    Идентификатор                            : 4
    Формат                                   : AC-3
    Формат/Информация                        : Audio Coding 3
    Идентификатор кодека                     : A_AC3
    Продолжительность                        : 1 ч. 42 м.
    Вид битрейта                             : Постоянный
    Битрейт                                  : 640 Кбит/сек
    Каналы                                   : 6 каналов
    Расположение каналов                     : Front: L C R, Side: L R, LFE
    Частота                                  : 48,0 КГц
    Частота кадров                           : 31,250 кадров/сек (1536 SPF)
    Битовая глубина                          : 16 бит
    Метод сжатия                             : С потерями
    Размер потока                            : 470 Мбайт (1%)
    Заголовок                                : | Дублированный |
    Язык                                     : Ukrainian
    ServiceKind                      : Complete Main
    Default                                  : Нет
    Forced                                   : Нет

    Аудио #4
    Идентификатор                            : 5
    Формат                                   : TrueHD
    Профиль формата                          : TrueHD+Atmos / TrueHD
    Идентификатор кодека                     : A_TRUEHD
    Продолжительность                        : 1 ч. 42 м.
    Вид битрейта                             : Переменный
    Битрейт                                  : 4697 Кбит/сек
    Максимальный битрейт                     : 8220 Кбит/сек
    Каналы                                   : Object Based / 8 каналов
    Расположение каналов                     : Object Based / Front: L C R, Side: L R, Back: L R, LFE
    Частота                                  :  / 48,0 КГц
    Частота кадров                           : 1200,000 кадров/сек (40 SPF)
    Метод сжатия                             : Без потерь
    Размер потока                            : 3,37 Гбайт (7%)
    Заголовок                                : | Original |
    Язык                                     : English
    Default                                  : Нет
    Forced                                   : Нет

    Аудио #5
    Идентификатор                            : 6
    Формат                                   : AC-3
    Формат/Информация                        : Audio Coding 3
    Идентификатор кодека                     : A_AC3
    Продолжительность                        : 1 ч. 42 м.
    Вид битрейта                             : Постоянный
    Битрейт                                  : 640 Кбит/сек
    Каналы                                   : 6 каналов
    Расположение каналов                     : Front: L C R, Side: L R, LFE
    Частота                                  : 48,0 КГц
    Частота кадров                           : 31,250 кадров/сек (1536 SPF)
    Битовая глубина                          : 16 бит
    Метод сжатия                             : С потерями
    Размер потока                            : 470 Мбайт (1%)
    Заголовок                                : | Original, AC3 Core |
    Язык                                     : English
    ServiceKind                     : Complete Main
    Default                                  : Нет
    Forced                                   : Нет

    Текст #1
    Идентификатор                            : 7
    Формат                                   : UTF-8
    Идентификатор кодека                     : S_TEXT/UTF8
    Идентификатор кодека/Информация          : UTF-8 Plain Text
    Продолжительность                        : 1 ч. 33 м.
    Битрейт                                  : 0 бит/сек
    ElementCount                             : 4
    Размер потока                            : 181 байт (0%)
    Заголовок                                : Forced
    Язык                                     : Russian
    Default                                  : Нет
    Forced                                   : Да

    Текст #2
    Идентификатор                            : 8
    Формат                                   : UTF-8
    Идентификатор кодека                     : S_TEXT/UTF8
    Идентификатор кодека/Информация          : UTF-8 Plain Text
    Продолжительность                        : 1 ч. 35 м.
    Битрейт                                  : 97 бит/сек
    ElementCount                             : 1781
    Размер потока                            : 68,2 Кбайт (0%)
    Заголовок                                : Full
    Язык                                     : Russian
    Default                                  : Нет
    Forced                                   : Нет

    Текст #3
    Идентификатор                            : 9
    Формат                                   : UTF-8
    Идентификатор кодека                     : S_TEXT/UTF8
    Идентификатор кодека/Информация          : UTF-8 Plain Text
    Продолжительность                        : 1 ч. 33 м.
    Битрейт                                  : 0 бит/сек
    ElementCount                             : 4
    Размер потока                            : 190 байт (0%)
    Заголовок                                : Forced
    Язык                                     : Ukrainian
    Default                                  : Нет
    Forced                                   : Да

    Текст #4
    Идентификатор                            : 10
    Формат                                   : UTF-8
    Идентификатор кодека                     : S_TEXT/UTF8
    Идентификатор кодека/Информация          : UTF-8 Plain Text
    Продолжительность                        : 1 с. 600 мс.
    Битрейт                                  : 65 бит/сек
    ElementCount                             : 1
    Размер потока                            : 13,0 байт (0%)
    Заголовок                                : Forced
    Язык                                     : English
    Default                                  : Нет
    Forced                                   : Да

    Текст #5
    Идентификатор                            : 11
    Формат                                   : UTF-8
    Идентификатор кодека                     : S_TEXT/UTF8
    Идентификатор кодека/Информация          : UTF-8 Plain Text
    Продолжительность                        : 1 ч. 35 м.
    Битрейт                                  : 76 бит/сек
    ElementCount                             : 1543
    Размер потока                            : 53,4 Кбайт (0%)
    Заголовок                                : Full
    Язык                                     : English
    Default                                  : Нет
    Forced                                   : Нет

    Текст #6
    Идентификатор                            : 12
    Формат                                   : UTF-8
    Идентификатор кодека                     : S_TEXT/UTF8
    Идентификатор кодека/Информация          : UTF-8 Plain Text
    Продолжительность                        : 1 ч. 42 м.
    Битрейт                                  : 200 бит/сек
    ElementCount                             : 1953
    Размер потока                            : 151 Кбайт (0%)
    Заголовок                                : Commentary 1
    Язык                                     : English
    Default                                  : Нет
    Forced                                   : Нет

    Текст #7
    Идентификатор                            : 13
    Формат                                   : UTF-8
    Идентификатор кодека                     : S_TEXT/UTF8
    Идентификатор кодека/Информация          : UTF-8 Plain Text
    Продолжительность                        : 1 ч. 37 м.
    Битрейт                                  : 161 бит/сек
    ElementCount                             : 1726
    Размер потока                            : 115 Кбайт (0%)
    Заголовок                                : Commentary 2
    Язык                                     : English
    Default                                  : Нет
    Forced                                   : Нет

    Текст #8
    Идентификатор                            : 14
    Формат                                   : PGS
    Идентификатор кодека                     : S_HDMV/PGS
    Идентификатор кодека/Информация          : Picture based subtitle format used on BDs/HD-DVDs
    Продолжительность                        : 1 ч. 41 м.
    Битрейт                                  : 55,4 Кбит/сек
    ElementCount                             : 4024
    Размер потока                            : 40,2 Мбайт (0%)
    Заголовок                                : SDH
    Язык                                     : English
    Default                                  : Нет
    Forced                                   : Нет

    Меню
    00:00:00.000                             : en:Chapter 1
    00:04:50.207                             : en:Chapter 2
    00:11:23.766                             : en:Chapter 3
    00:18:30.776                             : en:Chapter 4
    00:23:45.591                             : en:Chapter 5
    00:29:26.098                             : en:Chapter 6
    00:35:04.352                             : en:Chapter 7
    00:40:57.288                             : en:Chapter 8
    00:46:06.472                             : en:Chapter 9
    00:53:24.451                             : en:Chapter 10
    00:59:30.942                             : en:Chapter 11
    01:03:44.195                             : en:Chapter 12
    01:08:17.552                             : en:Chapter 13
    01:12:54.704                             : en:Chapter 14
    01:20:38.542                             : en:Chapter 15
    01:30:52.739                             : en:Chapter 16


    Как скачать?
    1. Качаем UTorrent версии 2.0 и выше отсюда
    2. После установки, жмем на ссылку Скачать торрент.
    3. Открываем его через utorrent.
    4. Ждем пока подключатся участники.
    5. Качаем.


    Комментарии о Смурфики / The Smurfs | BDRemux
    Добавлять комментарии могут только зарегистрированные пользователи

    Зарегистрироваться или Войти


    Ближайшее в кино
    • Безумие Георга III дата выхода 20 ноября 2018Безумие Георга III
      Дата выхода: 20 ноября 2018
    • 7226|Догвилль|22 ноября 2018|200|300Догвилль
      Дата выхода: 22 ноября 2018
    • 1009784|Апгрейд|22 ноября 2018|200|300Апгрейд
      Дата выхода: 22 ноября 2018
    • 988782|Ральф против интернета|22 ноября 2018|200|300Ральф против интернета
      Дата выхода: 22 ноября 2018
    • 965901|Вдовы|22 ноября 2018|200|300Вдовы
      Дата выхода: 22 ноября 2018
    • 1011685|Нация убийц|22 ноября 2018|200|300Нация убийц
      Дата выхода: 22 ноября 2018
    • 891414|Жена|22 ноября 2018|200|300Жена
      Дата выхода: 22 ноября 2018
    • 934207|Мотылёк|22 ноября 2018|200|300Мотылёк
      Дата выхода: 22 ноября 2018
    • 1044912|Вечерняя школа|22 ноября 2018|200|300Вечерняя школа
      Дата выхода: 22 ноября 2018
    • 1036188|Быть Астрид Линдгрен|22 ноября 2018|200|300Быть Астрид Линдгрен
      Дата выхода: 22 ноября 2018
    • 1048852|Помешанный на времени|22 ноября 2018|200|300Помешанный на времени
      Дата выхода: 22 ноября 2018
    • 1049775|Подбросы|22 ноября 2018|200|300Подбросы
      Дата выхода: 22 ноября 2018
    • 1108741|Я — миллиардер|22 ноября 2018|200|300Я — миллиардер
      Дата выхода: 22 ноября 2018
    • 1118041|Три лица|22 ноября 2018|200|300Три лица
      Дата выхода: 22 ноября 2018
    • 1209190|МУЛЬТ в кино. Выпуск 85. Мамин праздник|24 ноября 2018|200|300МУЛЬТ в кино. Выпуск 85. Мамин праздник
      Дата выхода: 24 ноября 2018
    Вверх