• Игры для PS4
  • Игры для PS3
  • Игры для XBOX360
  • Игры для PC
  • Игры для PS2
  • Игры для PSP
  • Для телефонов
  • Музыка
  • Книги / Журналы
  • Обои
  • Опрос
    Откуда Вы о нас узнали?
      0
    • От знакомых2,1,false,300,full
    • Из социальных сетей2,2,false,300,full
    • Из поисковых систем2,3,false,300,full
    • Другое2,4,false,300,full
    Статистика
    Всего онлайн -
    Гостей -
    Пользователей -
    Короли трекера
    
    Благодарности () Закрыть
    Быстрее загружает сайты Экономит интернет—трафик Меняет оформление страницы ВК Блокирует всю рекламу на сайтах Загружает торренты как µTorrent клиент Объеденяет все твои чаты из соц. сетей в один Проигрывает твою музыку не заходя во ВКонтакте
    Новый интернет-браузер
    Оrbitum
    Скачать
    и многое другое... Подробности на сайте производителя
    Информация о фильме
    Название: Скрюченный домишко
    Оригинальное название: Crooked House
    Год выхода: 2017
    Жанр:  Драма, криминал, детектив
    Режиссер: Жиль Паке-Бреннер
    В ролях: Кристина Хендрикс, Джиллиан Андерсон, Гленн Клоуз, Макс Айронс, Теренс Стэмп, Аманда Аббингтон, Стефани Мартини, Джулиан Сэндс, Роджер Эштон-Гриффитс, Кристиан МакКэй

    О фильме :
    Молодой человек Чарльз Хейуорд знакомится в Египте с Софией Леонидис ‒ внучкой богатого олигарха Аристида Леонидиса. Спустя два года Чарльз приезжает к Софии просить её руки. Но в семье Софии случилась трагедия: убит её дед. Обстоятельства смерти вскоре выясняются ‒ оказывается, что вместо инсулина пожилому мужчине вкололи смертельную дозу эзерина, глазных капель. Любой член семьи мог поменять местами бутылочки, поэтому под подозрением оказываются все без исключения. Чарльз, сын помощника комиссара полиции, берется за это непростое дело.



    Страна: Великобритания
    Студия: Brilliant Films
    Продолжительность: 01:55:11
    Перевод: Профессиональный (многоголосый, закадровый) | iTunes

    Файл
    Формат: MKV
    Качество: BDRip-AVC (BDRemux 1080p)  
    Видео: MPEG-4 AVC, 752x316, ~ 829 Кбит/с
    Аудио: [img]http://i93.fastpic.ru/big/2017/0727/c0/4b72f0369a3393219ed5935e91fc15c0.gif[/img] AAC-HE, 2 ch, ~ 76 Кбит/с
    Субтитры: Русские, английские

    MI
    Общее
    Уникальный идентификатор : 234720871003984531869822515422361390637 (0xB095986C64381DF6B5A3E58880758E2D)
    Полное имя : D:MOVIESSkrjuchennyi.domishko.2017.ExKinoRay.mkv
    Формат : Matroska
    Версия формата : Version 4 / Version 2
    Размер файла : 747 Мбайт
    Продолжительность : 1 ч. 55 м.
    Общий поток : 907 Кбит/сек
    Дата кодирования : UTC 2018-04-16 17:58:22
    Программа кодирования : mkvmerge v15.0.0 ("Duel with the Devil") 64-bit
    Библиотека кодирования : libebml v1.3.5 + libmatroska v1.4.5

    Видео
    Идентификатор : 1
    Формат : AVC
    Формат/Информация : Advanced Video Codec
    Профиль формата : High@L4.1
    Параметр CABAC формата : Да
    Параметр RefFrames формата : 10 кадров
    Идентификатор кодека : V_MPEG4/ISO/AVC
    Продолжительность : 1 ч. 55 м.
    Битрейт : 829 Кбит/сек
    Ширина : 752 пикселя
    Высота : 316 пикселей
    Соотношение сторон : 2,40:1
    Режим частоты кадров : Постоянный
    Частота кадров : 23,976 (24000/1001) кадра/сек
    Цветовое пространство : YUV
    Субдискретизация насыщенности : 4:2:0
    Битовая глубина : 8 бит
    Тип развёртки : Прогрессивная
    Бит/(Пиксели*Кадры) : 0.146
    Размер потока : 683 Мбайт (91%)
    Библиотека кодирования : x264 core 152 r2851 ba24899
    Настройки программы : cabac=1 / ref=10 / deblock=1:-2:-2 / analyse=0x3:0x133 / me=umh / subme=11 / psy=1 / psy_rd=1.00:0.07 / mixed_ref=1 / me_range=32 / chroma_me=1 / trellis=2 / 8x8dct=1 / cqm=0 / deadzone=21,11 / fast_pskip=0 / chroma_qp_offset=-3 / threads=6 / lookahead_threads=1 / sliced_threads=0 / nr=0 / decimate=0 / interlaced=0 / bluray_compat=0 / constrained_intra=0 / bframes=10 / b_pyramid=2 / b_adapt=2 / b_bias=0 / direct=3 / weightb=1 / open_gop=0 / weightp=2 / keyint=240 / keyint_min=23 / scenecut=40 / intra_refresh=0 / rc_lookahead=40 / rc=2pass / mbtree=0 / bitrate=829 / ratetol=1.0 / qcomp=0.60 / qpmin=0 / qpmax=69 / qpstep=4 / cplxblur=20.0 / qblur=0.5 / vbv_maxrate=50000 / vbv_bufsize=62500 / nal_hrd=none / filler=0 / ip_ratio=1.40 / pb_ratio=1.30 / aq=1:1.00
    Default : Да
    Forced : Нет

    Аудио
    Идентификатор : 2
    Формат : AAC
    Формат/Информация : Advanced Audio Codec
    Профиль формата : HE-AAC / LC
    Идентификатор кодека : A_AAC
    Продолжительность : 1 ч. 54 м.
    Битрейт : 76,0 Кбит/сек
    Каналы : 2 канала
    Расположение каналов : Front: L R
    Частота : 48,0 КГц / 24,0 КГц
    Частота кадров : 23,438 кадра/сек (1024 SPF)
    Метод сжатия : С потерями
    Задержка видео : 31 мс.
    Размер потока : 62,4 Мбайт (8%)
    Default : Да
    Forced : Нет

    Текст #1
    Идентификатор : 3
    Формат : UTF-8
    Идентификатор кодека : S_TEXT/UTF8
    Идентификатор кодека/Информация : UTF-8 Plain Text
    Продолжительность : 1 ч. 46 м.
    Битрейт : 114 бит/сек
    ElementCount : 1477
    Размер потока : 88,6 Кбайт (0%)
    Язык : Russian
    Default : Нет
    Forced : Нет

    Текст #2
    Идентификатор : 4
    Формат : UTF-8
    Идентификатор кодека : S_TEXT/UTF8
    Идентификатор кодека/Информация : UTF-8 Plain Text
    Продолжительность : 1 ч. 46 м.
    Битрейт : 71 бит/сек
    ElementCount : 1477
    Размер потока : 55,3 Кбайт (0%)
    Заголовок : Full
    Язык : English
    Default : Нет
    Forced : Нет

    Меню
    00:00:00.000 : :Chapter 1
    00:09:27.484 : :Chapter 2
    00:18:25.229 : :Chapter 3
    00:25:24.148 : :Chapter 4
    00:31:51.034 : :Chapter 5
    00:38:01.154 : :Chapter 6
    00:43:37.281 : :Chapter 7
    00:51:18.867 : :Chapter 8
    00:54:23.510 : :Chapter 9
    01:00:16.029 : :Chapter 10
    01:11:44.342 : :Chapter 11
    01:17:28.435 : :Chapter 12
    01:24:45.414 : :Chapter 13
    01:28:59.209 : :Chapter 14
    01:34:54.063 : :Chapter 15
    01:42:04.952 : :Chapter 16
    Свернуть


    Скриншоты
    [screen]http://i6.imageban.ru/out/2018/04/16/7e76dfc86114fe1544ccbb8dafe32559.jpg[/screen][screen]http://i3.imageban.ru/out/2018/04/16/6b6e7011bc552935155bfaecc2e3a479.jpg[/screen][screen]http://i4.imageban.ru/out/2018/04/16/a1eb7827aa2014cdcc78d51aec9b94af.jpg[/screen][screen]http://i3.imageban.ru/out/2018/04/16/793e64d005fce7fe3aba5901602653ee.jpg[/screen]

    [screen]http://i4.imageban.ru/out/2018/04/16/820fbeaee7f149871782976422cc0507.jpg[/screen][screen]http://i6.imageban.ru/out/2018/04/16/7a8bb39957227b30ab662bbaff1de3d8.jpg[/screen][screen]http://i3.imageban.ru/out/2018/04/16/a57c306f6d2b5cbe8de9b0c160ccc26c.jpg[/screen][screen]http://i4.imageban.ru/out/2018/04/16/3bf8d87b0da146d8d88429d1b7f1037d.jpg[/screen]
    Свернуть
    Похожие раздачи Искать похожие
    Инструкция по скачиванию
     1  Качаем uTorrent версии 2.0 и выше
     2  После установки, жмем выше под постером на ссылку Скачать [MediaGet] или Скачать .torrent
     3  Открываем скачанный файл через соответствующий клиент: MediaGet или uTorrent
     4  Ждем пока подключатся участники
     5  Качаем
    Комментарии о  Скрюченный домишко / Crooked House | BDRip-AVC 
    Ближайшее в кино
    Вверх