• Игры для PS4
  • Игры для PS3
  • Игры для XBOX360
  • Игры для PC
  • Игры для PS2
  • Игры для PSP
  • Для телефонов
  • Музыка
  • Книги/Журналы
  • Обои
  •  
    Опрос
    Удобен ли сайт в использовании?
      0
    • Очень удобен, все понятно1,1,false,300,full
    • Удобен1,2,false,300,full
    • Средне1,3,false,300,full
    • Неудобен, трудно ориентироваться1,4,false,300,full
    • Совсем неудобен1,5,false,300,full
    Статистика
    Загрузка...
    Битва за Алжир / La battaglia di Algeri / The battle of Algiers | BDRemux 1080p
    Статус  Проверено
    В закладки
    Модератор: Max

    Битва за Алжир / La battaglia di Algeri / The battle of Algiers | BDRemux 1080p [Фильмы 1966] скачать торрентом/torrent бесплатно

    Год выхода
    Категории
    Язык
    Закачал
    Аноним | 16 апреля в 23ч 14м 38с
    Раздел
    Отзывов
    0
    Раздают: 1 Качают: 0 Скачали: 1 Размер: 20.91 GB
    Инфо о раздаче | Благодарности |
    0/5
    0
    0 5 0
    Поддержи нас — расскажи друзьям!
    Orbitum
    Новый интернет-браузер Быстрее загружает сайты Экономит интернет—трафик Меняет оформление страницы ВК Блокирует всю рекламу на сайтах Загружает торренты как

    µTorrent

    клиент
    Объеденяет все твои чаты из соц. сетей в один Проигрывает твою музыку не заходя во ВКонтакте
    Скачать и многое другое... Подробности на сайте производителя
    Информация о фильме
    Название: Битва за Алжир
    Оригинальное название: La battaglia di Algeri / The battle of Algiers
    Год выхода: 1966
    Жанр: драма, военный
    Режиссер: Джилло Понтекорво
    В ролях: Жан Мартен, Язев Саади, Брахим Хаджадж, Самиа Керьаш, Томмазо Нери, Уго Палетти, Фусия Эль Кадер, Франко Моричи, Мохамед Бен Кассен, Мишель Керьаш, Джин Уэссон

    Описание: В центре фильма — события алжирской борьбы за независимость в промежутке между 1954 и 1960 гг., пропущенные через воспоминания находящегося под арестом главного героя.



    Страна: Италия, Алжир
    Продолжительность: 02:02:10
    Перевод: Перевод: Авторский (одноголосый закадровый) Сергей Кузнецов
    Субтитры: русские, английские
    Оригинальная аудиодорожка: французский

    Файл
    Качество: BDRemux 1080р
    Видео: 24000 Кбит/сек, AVC (NTSC) 1920*1080 (16:9), 23,976 кадра/сек
    Аудио 1: Русский, 192 Кбит/сек, 48,0 КГц, 16 бит, 2 канала, AC-3
    Аудио 2: Французский, 303 Кбит/сек, 48,0 КГц, 16 бит, 2 канала, FLAC

    Скриншоты
    [img]http://img12.lostpic.net/2018/04/16/9f50ae11e8005360fab9259b431773f9.png[/img][img]http://img12.lostpic.net/2018/04/16/1bc2945dbb19fd6c21b8ed71968bf31c.png[/img][img]http://img12.lostpic.net/2018/04/16/6682f08ce42095e08bff4a3458495df1.png[/img]


    MediaInfo
    Общее
    Уникальный идентификатор                 : 331734490594217842690805342437798874776 (0xF991BD28B0E3B679293D792FD6548E98)
    Полное имя                               : Битва за Алжир (1966) BDRemux 1080p.mkv
    Формат                                   : Matroska
    Версия формата                           : Version 4 / Version 2
    Размер файла                             : 20,9 Гбайт
    Продолжительность                        : 2 ч. 2 м.
    Режим общего битрейта                    : Переменный
    Общий поток                              : 24,5 Мбит/сек
    Название фильма                          : La battaglia di Algeri (1966)
    Дата кодирования                         : UTC 2018-04-16 17:04:49
    Программа кодирования                    : mkvmerge v19.0.0 ("Brave Captain") 64-bit
    Библиотека кодирования                   : libebml v1.3.5 + libmatroska v1.4.8

    Видео
    Идентификатор                            : 1
    Формат                                   : AVC
    Формат/Информация                        : Advanced Video Codec
    Профиль формата                          : High@L4.1
    Настройки формата                        : CABAC / 3 Ref Frames
    Параметр CABAC формата                   : Да
    Параметр RefFrames формата               : 3 кадра
    Идентификатор кодека                     : V_MPEG4/ISO/AVC
    Продолжительность                        : 2 ч. 2 м.
    Вид битрейта                             : Переменный
    Битрейт                                  : 24,0 Мбит/сек
    Максимальный битрейт                     : 35,0 Мбит/сек
    Ширина                                   : 1920 пикселей
    Высота                                   : 1080 пикселей
    Соотношение сторон                       : 16:9
    Режим частоты кадров                     : Постоянный
    Частота кадров                           : 23,976 (24000/1001) кадра/сек
    Стандарт вещания                         : NTSC
    Цветовое пространство                    : YUV
    Субдискретизация насыщенности            : 4:2:0
    Битовая глубина                          : 8 бит
    Тип развёртки                            : Прогрессивная
    Бит/(Пиксели*Кадры)                      : 0.483
    Размер потока                            : 20,5 Гбайт (98%)
    Язык                                     : French
    Default                                  : Да
    Forced                                   : Нет
    Цветовой диапазон                        : Limited
    Основные цвета                           : BT.709
    Характеристики трансфера                 : BT.709
    Коэффициенты матрицы                     : BT.709

    Аудио #1
    Идентификатор                            : 2
    Формат                                   : AC-3
    Формат/Информация                        : Audio Coding 3
    Идентификатор кодека                     : A_AC3
    Продолжительность                        : 2 ч. 2 м.
    Вид битрейта                             : Постоянный
    Битрейт                                  : 192 Кбит/сек
    Каналы                                   : 2 канала
    Расположение каналов                     : Front: L R
    Частота                                  : 48,0 КГц
    Частота кадров                           : 31,250 кадров/сек (1536 SPF)
    Битовая глубина                          : 16 бит
    Метод сжатия                             : С потерями
    Размер потока                            : 168 Мбайт (1%)
    Заголовок                                : AVO
    Язык                                     : Russian
    Default                                  : Да
    Forced                                   : Нет

    Аудио #2
    Идентификатор                            : 3
    Формат                                   : FLAC
    Формат/Информация                        : Free Lossless Audio Codec
    Идентификатор кодека                     : A_FLAC
    Продолжительность                        : 2 ч. 2 м.
    Вид битрейта                             : Переменный
    Битрейт                                  : 303 Кбит/сек
    Каналы                                   : 2 канала
    Частота                                  : 48,0 КГц
    Частота кадров                           : 11,719 кадров/сек (4096 SPF)
    Битовая глубина                          : 16 бит
    Размер потока                            : 265 Мбайт (1%)
    Заголовок                                : original
    Библиотека кодирования                   : libFLAC 1.2.1 (UTC 2007-09-17)
    Язык                                     : French
    Default                                  : Нет
    Forced                                   : Нет

    Текст #1
    Идентификатор                            : 4
    Формат                                   : UTF-8
    Идентификатор кодека                     : S_TEXT/UTF8
    Идентификатор кодека/Информация          : UTF-8 Plain Text
    Продолжительность                        : 2 ч. 0 м.
    Битрейт                                  : 62 бит/сек
    ElementCount                             : 986
    Размер потока                            : 54,7 Кбайт (0%)
    Заголовок                                : srt
    Язык                                     : Russian
    Default                                  : Нет
    Forced                                   : Нет

    Текст #2
    Идентификатор                            : 5
    Формат                                   : UTF-8
    Идентификатор кодека                     : S_TEXT/UTF8
    Идентификатор кодека/Информация          : UTF-8 Plain Text
    Продолжительность                        : 2 ч. 1 м.
    Битрейт                                  : 34 бит/сек
    ElementCount                             : 938
    Размер потока                            : 30,5 Кбайт (0%)
    Заголовок                                : srt
    Язык                                     : English
    Default                                  : Нет
    Forced                                   : Нет

    Меню
    00:00:00.000                             : en:Chapter 1
    00:07:14.767                             : en:Chapter 2
    00:16:35.160                             : en:Chapter 3
    00:22:34.311                             : en:Chapter 4
    00:25:14.596                             : en:Chapter 5
    00:31:08.741                             : en:Chapter 6
    00:48:45.172                             : en:Chapter 7
    00:54:35.021                             : en:Chapter 8
    01:02:07.181                             : en:Chapter 9
    01:18:02.719                             : en:Chapter 10
    01:24:05.790                             : en:Chapter 11
    01:35:47.616                             : en:Chapter 12
    01:42:15.796                             : en:Chapter 13
    Еще похожие »

    Как скачать?
    1. Качаем UTorrent версии 2.0 и выше отсюда
    2. После установки, жмем на ссылку Скачать торрент.
    3. Открываем его через utorrent.
    4. Ждем пока подключатся участники.
    5. Качаем.


    Комментарии о Битва за Алжир / La battaglia di Algeri / The battle of Algiers | BDRemux 1080p
    Добавлять комментарии могут только зарегистрированные пользователи

    Зарегистрироваться или Войти


    Ближайшее в кино
    • Клуб миллиардеров дата выхода 19 июля 2018Клуб миллиардеров
      Дата выхода: 19 июля 2018
    • 848004|Паранормальное|19 июля 2018|200|300Паранормальное
      Дата выхода: 19 июля 2018
    • 993589|Килиманджара|19 июля 2018|200|300Килиманджара
      Дата выхода: 19 июля 2018
    • 1002560|Зои|19 июля 2018|200|300Зои
      Дата выхода: 19 июля 2018
    • 1025011|Офисный беспредел|19 июля 2018|200|300Офисный беспредел
      Дата выхода: 19 июля 2018
    • 1024435|Это чертово сердце|19 июля 2018|200|300Это чертово сердце
      Дата выхода: 19 июля 2018
    • 1169286|МУЛЬТ в кино. Выпуск №78. Наше лето!|21 июля 2018|200|300МУЛЬТ в кино. Выпуск №78. Наше лето!
      Дата выхода: 21 июля 2018
    • 926540|Миссия невыполнима: Последствия|26 июля 2018|200|300Миссия невыполнима: Последствия
      Дата выхода: 26 июля 2018
    • 992614|Обитатели|26 июля 2018|200|300Обитатели
      Дата выхода: 26 июля 2018
    • 854458|Белль и Себастьян: Приключения продолжаются|26 июля 2018|200|300Белль и Себастьян: Приключения продолжаются
      Дата выхода: 26 июля 2018
    • 1049478|Убежище дьявола|26 июля 2018|200|300Убежище дьявола
      Дата выхода: 26 июля 2018
    • 1008732|Мектуб, моя любовь|26 июля 2018|200|300Мектуб, моя любовь
      Дата выхода: 26 июля 2018
    • 1049447|Юные титаны, вперед!|26 июля 2018|200|300Юные титаны, вперед!
      Дата выхода: 26 июля 2018
    • 1067608|Свидетели|26 июля 2018|200|300Свидетели
      Дата выхода: 26 июля 2018
    • 933307|Опасная игра Слоун|2 августа 2018|200|300Опасная игра Слоун
      Дата выхода: 2 августа 2018
    Вверх