• Игры для PS3
  • Игры для XBOX360
  • Игры для PC
  • Игры для PS2
  • Игры для PSP
  • Для телефонов
  • Музыка
  • Книги/Журналы
  • Обои
  •  
    Опрос
    Удобен ли сайт в использовании?
      0
    • Очень удобен, все понятно1,1,false,300,full
    • Удобен1,2,false,300,full
    • Средне1,3,false,300,full
    • Неудобен, трудно ориентироваться1,4,false,300,full
    • Совсем неудобен1,5,false,300,full
    Статистика
    Загрузка...
    Тихоокеанский рубеж 2 / Pacific Rim Uprising | WEBRip 1080p
    Статус  Проверено
    В закладки
    Модератор: Max

    Тихоокеанский рубеж 2 / Pacific Rim Uprising | WEBRip 1080p [Фильмы 2018] скачать торрентом/torrent бесплатно

    Год выхода
    Язык
    Закачал
    Max | 27 апреля в 17ч 24м 10с
    Раздел
    Отзывов
    0
    Раздают: 411 Качают: 15 Скачали: 657 Размер: 4.84 GB
    Инфо о раздаче | Благодарности |
    0/5
    0
    0 5 0
    Поддержи нас — расскажи друзьям!
    Orbitum
    Новый интернет-браузер Быстрее загружает сайты Экономит интернет—трафик Меняет оформление страницы ВК Блокирует всю рекламу на сайтах Загружает торренты как

    µTorrent

    клиент
    Объеденяет все твои чаты из соц. сетей в один Проигрывает твою музыку не заходя во ВКонтакте
    Скачать и многое другое... Подробности на сайте производителя
    Информация о фильме
    Название: Тихоокеанский рубеж 2
    Оригинальное название: Pacific Rim Uprising
    Год выхода: 2018
    Жанр: фантастика, боевик, приключения

    Режиссер: Стивен С. ДеНайт

    В ролях: Джон Бойега, Скотт Иствуд, Кэйли Спэни, Берн Горман, Чарли Дэй, Цзин Тянь, Макс Чжан, Адриа Архона, Ринко Кикути, Каран Брэр

    О фильме:
    Команда пилотируемых роботов-защитников остановила вторжение гигантских инопланетных монстров. Великая битва за Тихоокеанский рубеж ознаменовала новую главу в истории человечества. Однако война только начинается…
    Пришло время нового поколения отстаивать своё право на Землю.



    Страна: США, Китай, Великобритания
    Продолжительность: 01:50:43
    Перевод: Профессиональный многоголосый [HDrezka Studio]

    Файл
    Кодек: x.264
    Качество: WEBRip 1080p
    Видео: AVC, 1920x800 (2.40:1), 29.970 fps, 5 500 Kbps
    Аудио #1: AC-3, 48.0 KHz, 2 ch, 192 Kbps, CBR | RUS [MVO/HDrezka Studio]
    Аудио #2: AC-3, 48.0 KHz, 2 ch, 192 Kbps, CBR | UKR [DUB/LeDoyen]
    Аудио #3: AC-3, 48.0 KHz, 2 ch, 384 Kbps, CBR | ENG
    Субтитры: Корейские (вшитые), английские

    MI
    Общее
    Уникальный идентификатор                 : 181341046932387868576515322014124963478 (0x886D03E6FD2BEFF2844E3574375B7696)
    Полное имя                               : Pacific.Rim.2.Uprising.2018.WEBRip.1080p.mkv
    Формат                                   : Matroska
    Версия формата                           : Version 4 / Version 2
    Размер файла                             : 4,84 Гбайт
    Продолжительность                        : 1 ч. 50 м.
    Общий поток                              : 6262 Кбит/сек
    Название фильма                          : Pacific Rim 2 Uprising 2018 from ExKinoRay
    Дата кодирования                         : UTC 2018-04-27 13:37:05
    Программа кодирования                    : mkvmerge v8.3.0 ("Over the Horizon") 64bit
    Библиотека кодирования                   : libebml v1.3.1 + libmatroska v1.4.2

    Видео
    Идентификатор                            : 1
    Формат                                   : AVC
    Формат/Информация                        : Advanced Video Codec
    Профиль формата                          : High@L4.1
    Параметр CABAC формата                   : Да
    Параметр ReFrames формата                : 4 кадра
    Идентификатор кодека                     : V_MPEG4/ISO/AVC
    Продолжительность                        : 1 ч. 50 м.
    Битрейт                                  : 5500 Кбит/сек
    Ширина                                   : 1920 пикселей
    Высота                                   : 800 пикселей
    Соотношение сторон                       : 2,40:1
    Режим частоты кадров                     : Переменный
    Частота кадров                           : 29,970 (30000/1001) кадров/сек
    Цветовое пространство                    : YUV
    Субдискретизация насыщенности            : 4:2:0
    Битовая глубина                          : 8 бит
    Тип развёртки                            : Прогрессивная
    Бит/(Пиксели*Кадры)                      : 0.119
    Размер потока                            : 4,25 Гбайт (88%)
    Библиотека кодирования                   : x264 core 148 r2795M aaa9aa8
    Настройки программы                      : cabac=1 / ref=4 / deblock=1:0:0 / analyse=0x3:0x113 / me=hex / subme=8 / psy=1 / psy_rd=1.00:0.00 / mixed_ref=1 / me_range=16 / chroma_me=1 / trellis=2 / 8x8dct=1 / cqm=0 / deadzone=21,11 / fast_pskip=1 / chroma_qp_offset=-2 / threads=40 / lookahead_threads=6 / sliced_threads=0 / nr=0 / decimate=1 / interlaced=0 / bluray_compat=0 / constrained_intra=0 / bframes=3 / b_pyramid=2 / b_adapt=1 / b_bias=0 / direct=3 / weightb=1 / open_gop=0 / weightp=2 / keyint=250 / keyint_min=25 / scenecut=40 / intra_refresh=0 / rc_lookahead=50 / rc=abr / mbtree=1 / bitrate=5500 / ratetol=1.0 / qcomp=0.60 / qpmin=0 / qpmax=69 / qpstep=4 / ip_ratio=1.40 / aq=1:1.00
    Default                                  : Да
    Forced                                   : Нет

    Аудио #1
    Идентификатор                            : 2
    Формат                                   : AC-3
    Формат/Информация                        : Audio Coding 3
    Расширение режима                        : CM (complete main)
    Параметр Endianness формата              : Big
    Идентификатор кодека                     : A_AC3
    Продолжительность                        : 1 ч. 50 м.
    Вид битрейта                             : Постоянный
    Битрейт                                  : 192 Кбит/сек
    Каналы                                   : 2 канала
    Расположение каналов                     : Front: L R
    Частота                                  : 48,0 КГц
    Частота кадров                           : 31,250 кадров/сек (1536 spf)
    Битовая глубина                          : 16 бит
    Метод сжатия                             : С потерями
    Размер потока                            : 152 Мбайт (3%)
    Заголовок                                : HDrezka
    Язык                                     : Russian
    Default                                  : Да
    Forced                                   : Нет

    Аудио #2
    Идентификатор                            : 3
    Формат                                   : AC-3
    Формат/Информация                        : Audio Coding 3
    Расширение режима                        : CM (complete main)
    Параметр Endianness формата              : Big
    Идентификатор кодека                     : A_AC3
    Продолжительность                        : 1 ч. 50 м.
    Вид битрейта                             : Постоянный
    Битрейт                                  : 192 Кбит/сек
    Каналы                                   : 2 канала
    Расположение каналов                     : Front: L R
    Частота                                  : 48,0 КГц
    Частота кадров                           : 31,250 кадров/сек (1536 spf)
    Битовая глубина                          : 16 бит
    Метод сжатия                             : С потерями
    Размер потока                            : 152 Мбайт (3%)
    Заголовок                                : DUB [LeDoyen]
    Язык                                     : Ukrainian
    Default                                  : Нет
    Forced                                   : Нет

    Аудио #3
    Идентификатор                            : 4
    Формат                                   : AC-3
    Формат/Информация                        : Audio Coding 3
    Расширение режима                        : CM (complete main)
    Параметр Endianness формата              : Big
    Идентификатор кодека                     : A_AC3
    Продолжительность                        : 1 ч. 50 м.
    Вид битрейта                             : Постоянный
    Битрейт                                  : 384 Кбит/сек
    Каналы                                   : 2 канала
    Расположение каналов                     : Front: L R
    Частота                                  : 48,0 КГц
    Частота кадров                           : 31,250 кадров/сек (1536 spf)
    Битовая глубина                          : 16 бит
    Метод сжатия                             : С потерями
    Размер потока                            : 304 Мбайт (6%)
    Язык                                     : English
    Default                                  : Нет
    Forced                                   : Нет

    Текст #1
    Идентификатор                            : 5
    Формат                                   : UTF-8
    Идентификатор кодека                     : S_TEXT/UTF8
    Идентификатор кодека/Информация          : UTF-8 Plain Text
    Продолжительность                        : 1 ч. 40 м.
    Битрейт                                  : 98 бит/сек
    Count of elements                        : 1127
    Размер потока                            : 72,0 Кбайт (0%)
    Язык                                     : English
    Default                                  : Нет
    Forced                                   : Нет

    Текст #2
    Идентификатор                            : 6
    Формат                                   : SSA
    Идентификатор кодека                     : S_TEXT/SSA
    Идентификатор кодека/Информация          : Sub Station Alpha
    Продолжительность                        : 1 ч. 40 м.
    Битрейт                                  : 128 бит/сек
    Count of elements                        : 1127
    Метод сжатия                             : Без потерь
    Размер потока                            : 94,1 Кбайт (0%)
    Язык                                     : English
    Default                                  : Нет
    Forced                                   : Нет

    Текст #3
    Идентификатор                            : 7
    Формат                                   : SSA
    Идентификатор кодека                     : S_TEXT/SSA
    Идентификатор кодека/Информация          : Sub Station Alpha
    Продолжительность                        : 1 ч. 40 м.
    Битрейт                                  : 138 бит/сек
    Count of elements                        : 1127
    Метод сжатия                             : Без потерь
    Размер потока                            : 102 Кбайт (0%)
    Язык                                     : English
    Default                                  : Нет
    Forced                                   : Нет


    Еще похожие »

    Как скачать?
    1. Качаем UTorrent версии 2.0 и выше отсюда
    2. После установки, жмем на ссылку Скачать торрент.
    3. Открываем его через utorrent.
    4. Ждем пока подключатся участники.
    5. Качаем.


    Комментарии о Тихоокеанский рубеж 2 / Pacific Rim Uprising | WEBRip 1080p
    Добавлять комментарии могут только зарегистрированные пользователи

    Зарегистрироваться или Войти


    Ближайшее в кино
    • Хан Соло: Звёздные Войны. Истории дата выхода 24 мая 2018Хан Соло: Звёздные Войны. Истории
      Дата выхода: 24 мая 2018
    • 719155|Секса не будет!!!|24 мая 2018|200|300Секса не будет!!!
      Дата выхода: 24 мая 2018
    • 912012|Распрекрасный принц|24 мая 2018|200|300Распрекрасный принц
      Дата выхода: 24 мая 2018
    • 1006294|Круги дьявола|24 мая 2018|200|300Круги дьявола
      Дата выхода: 24 мая 2018
    • 842709|Садко|24 мая 2018|200|300Садко
      Дата выхода: 24 мая 2018
    • 1044310|Гупёшка|24 мая 2018|200|300Гупёшка
      Дата выхода: 24 мая 2018
    • 893681|Черновик|25 мая 2018|200|300Черновик
      Дата выхода: 25 мая 2018
    • 1138771|МУЛЬТ в кино. Выпуск 76. Лето, привет!|26 мая 2018|200|300МУЛЬТ в кино. Выпуск 76. Лето, привет!
      Дата выхода: 26 мая 2018
    • 959365|Невидимый гость|31 мая 2018|200|300Невидимый гость
      Дата выхода: 31 мая 2018
    • 762500|Красный воробей|31 мая 2018|200|300Красный воробей
      Дата выхода: 31 мая 2018
    • 843121|Как разговаривать с девушками на вечеринках|31 мая 2018|200|300Как разговаривать с девушками на вечеринках
      Дата выхода: 31 мая 2018
    • 965611|Истории призраков|31 мая 2018|200|300Истории призраков
      Дата выхода: 31 мая 2018
    • 1048530|Моя жизнь|31 мая 2018|200|300Моя жизнь
      Дата выхода: 31 мая 2018
    • 1030828|Псы под прикрытием|31 мая 2018|200|300Псы под прикрытием
      Дата выхода: 31 мая 2018
    • 927822|Два хвоста|31 мая 2018|200|300Два хвоста
      Дата выхода: 31 мая 2018
    Вверх