• Игры для PS4
  • Игры для PS3
  • Игры для XBOX360
  • Игры для PC
  • Игры для PS2
  • Игры для PSP
  • Для телефонов
  • Музыка
  • Книги / Журналы
  • Обои
  • Опрос
    Удобен ли сайт в использовании?
      0
    • Очень удобен, все понятно1,1,false,300,full
    • Удобен1,2,false,300,full
    • Средне1,3,false,300,full
    • Неудобен, трудно ориентироваться1,4,false,300,full
    • Совсем неудобен1,5,false,300,full
    Статистика
    Всего онлайн -
    Гостей -
    Пользователей -
    Короли трекера
    
    Благодарности () Закрыть
    Быстрее загружает сайты Экономит интернет—трафик Меняет оформление страницы ВК Блокирует всю рекламу на сайтах Загружает торренты как µTorrent клиент Объеденяет все твои чаты из соц. сетей в один Проигрывает твою музыку не заходя во ВКонтакте
    Новый интернет-браузер
    Orbitum
    Скачать
    и многое другое... Подробности на сайте производителя
    «Страшная легенда оживает вновь»

    Русское название: Из ада
    Оригинальное название: From Hell
    Год выпуска: 2001
    Жанр: ужасы, триллер, детектив
    Выпущено: США
    Режиссер: Альберт Хьюз, Аллен Хьюз
    В ролях: Джонни Депп , Хэзер Грэм , Иэн Холм , Робби Колтрейн , Иэн Ричардсон , Джейсон Флеминг , Кэтрин Картлидж , Теренс Харви , Сьюзэн Линч , Пол Рис , Лесли Шарп , Эстелл Скорник
    Перевод: Дублированный, Профессиональный многоголосый, Авторский одноголосый, Любительский одноголосый


    Сюжет фильма:
    Он - воплощение тьмы и ужаса. Он самый таинственный и знаменитый из всех серийных убийц, известных истории. Он погрузил Англию в атмосферу страха и породил массу слухов и домыслов. Убийца, который знает больше простого мясника или лаборанта. Убивая, он совершает чудовищный ритуал. Его прозвище - Джек-Потрошитель.
    Поймать его пытается инспектор Фред Эбберлайн. С помощью опиума он усиливает свой природный дар ясновидения и приходит к выводу, что дело Джека-Потрошителя - часть злодейского заговора, в который замешан Орден Масонов, выполняющий, в свою очередь, волю королевского дома.



    Качество: BDRip 720p
    Формат: AVC  (библиотека кодирования x.264)
    Контейнер (Расширение): MKV
    Видео: 1280x544, 5500 Кбит/сек, 23,976 кадр/сек, 0,329 Бит/[Пиксели*Кадры]
    Аудио №1: русский / AC3 / 5.1 / 48 kHz / 448 kbps / 16 bit |Дублированный|
    Аудио №2: русский / AC3 / 5.1 / 48 kHz / 640 kbps / 16 bit |Профессиональный многоголосый, Карусель|
    Аудио №3: русский / AC3 / 5.1 / 48 kHz / 384 kbps / 16 bit |Профессиональный многоголосый|
    Аудио №4: русский / AC3 / 2.0 / 48 kHz / 192 kbps / 16 bit |Профессиональный многоголосый, Премьер видео|
    Аудио №5: русский / AC3 / 5.1 / 48 kHz / 640 kbps / 16 bit |Авторский одноголосый, А.Гаврилов|
    Аудио №6: русский / AC3 / 5.1 / 48 kHz / 640 kbps / 16 bit |Любительский одноголосый|
    Аудио №7: английский / AC3 / 5.1 / 48 kHz / 640 kbps /
    Субтитры: русские, английские (SDH)
    Навигация по главам(Чаптеры): есть
    Продолжительность: 02:02:13

    MediaInfo

    Format                                   : Matroska
    Format version                           : Version 2
    File size                                : 7.91 GiB
    Duration                                 : 2h 2mn
    Overall bit rate                         : 9 269 Kbps
    Movie name                               : From Hell.(2001).BDRip.720p.[denis100]
    Encoded date                             : UTC 2016-06-19 06:08:29
    Writing application                      : mkvmerge v5.8.0 ("No Sleep / Pillow") built on Sep  2 2012 15:37:04
    Writing library                          : libebml v1.2.3 + libmatroska v1.3.0

    Video
    ID                                       : 1
    Format                                   : AVC
    Format/Info                              : Advanced Video Codec
    Format profile                           : High@L4.1
    Format settings, CABAC                   : Yes
    Format settings, ReFrames                : 11 frames
    Codec ID                                 : V_MPEG4/ISO/AVC
    Duration                                 : 2h 2mn
    Bit rate                                 : 5 501 Kbps
    Width                                    : 1 280 pixels
    Height                                   : 544 pixels
    Display aspect ratio                     : 2.35:1
    Frame rate                               : 23.976 fps
    Color space                              : YUV
    Chroma subsampling                       : 4:2:0
    Bit depth                                : 8 bits
    Scan type                                : Progressive
    Bits/(Pixel*Frame)                       : 0.329
    Stream size                              : 4.70 GiB (59%)
    Title                                    : From Hell.(2001).BDRip.720p.[denis100]
    Writing library                          : x264 core 148 r2692 64f4e24
    Encoding settings                        : cabac=1 / ref=11 / deblock=1:-3:-3 / analyse=0x3:0x133 / me=umh / subme=11 / psy=1 / psy_rd=1.00:0.15 / mixed_ref=1 / me_range=32 / chroma_me=1 / trellis=2 / 8x8dct=1 / cqm=0 / deadzone=21,11 / fast_pskip=0 / chroma_qp_offset=-3 / threads=6 / lookahead_threads=1 / sliced_threads=0 / nr=0 / decimate=1 / interlaced=0 / bluray_compat=0 / constrained_intra=0 / bframes=12 / b_pyramid=2 / b_adapt=2 / b_bias=0 / direct=3 / weightb=1 / open_gop=0 / weightp=2 / keyint=240 / keyint_min=23 / scenecut=40 / intra_refresh=0 / rc=crf / mbtree=0 / crf=16.7 / qcomp=0.60 / qpmin=0 / qpmax=69 / qpstep=4 / ip_ratio=1.40 / pb_ratio=1.30 / aq=1:0.80
    Language                                 : English
    Default                                  : Yes
    Forced                                   : No

    Audio #1
    ID                                       : 2
    Format                                   : AC-3
    Format/Info                              : Audio Coding 3
    Mode extension                           : CM (complete main)
    Muxing mode                              : Header stripping
    Codec ID                                 : A_AC3
    Duration                                 : 2h 2mn
    Bit rate mode                            : Constant
    Bit rate                                 : 448 Kbps
    Channel(s)                               : 6 channels
    Channel positions                        : Front: L C R, Side: L R, LFE
    Sampling rate                            : 48.0 KHz
    Bit depth                                : 16 bits
    Compression mode                         : Lossy
    Stream size                              : 392 MiB (5%)
    Title                                    : Дубляж
    Language                                 : Russian
    Default                                  : Yes
    Forced                                   : No

    Audio #2
    ID                                       : 3
    Format                                   : AC-3
    Format/Info                              : Audio Coding 3
    Mode extension                           : CM (complete main)
    Muxing mode                              : Header stripping
    Codec ID                                 : A_AC3
    Duration                                 : 2h 2mn
    Bit rate mode                            : Constant
    Bit rate                                 : 640 Kbps
    Channel(s)                               : 6 channels
    Channel positions                        : Front: L C R, Side: L R, LFE
    Sampling rate                            : 48.0 KHz
    Bit depth                                : 16 bits
    Compression mode                         : Lossy
    Stream size                              : 559 MiB (7%)
    Title                                    : MVO, Карусель
    Language                                 : Russian
    Default                                  : No
    Forced                                   : No

    Audio #3
    ID                                       : 4
    Format                                   : AC-3
    Format/Info                              : Audio Coding 3
    Mode extension                           : CM (complete main)
    Muxing mode                              : Header stripping
    Codec ID                                 : A_AC3
    Duration                                 : 2h 2mn
    Bit rate mode                            : Constant
    Bit rate                                 : 384 Kbps
    Channel(s)                               : 6 channels
    Channel positions                        : Front: L C R, Side: L R, LFE
    Sampling rate                            : 48.0 KHz
    Bit depth                                : 16 bits
    Compression mode                         : Lossy
    Stream size                              : 336 MiB (4%)
    Title                                    : MVO
    Language                                 : Russian
    Default                                  : No
    Forced                                   : No

    Audio #4
    ID                                       : 5
    Format                                   : AC-3
    Format/Info                              : Audio Coding 3
    Mode extension                           : CM (complete main)
    Muxing mode                              : Header stripping
    Codec ID                                 : A_AC3
    Duration                                 : 2h 2mn
    Bit rate mode                            : Constant
    Bit rate                                 : 192 Kbps
    Channel(s)                               : 2 channels
    Channel positions                        : Front: L R
    Sampling rate                            : 48.0 KHz
    Bit depth                                : 16 bits
    Compression mode                         : Lossy
    Stream size                              : 168 MiB (2%)
    Title                                    : MVO, Премьер видео
    Language                                 : Russian
    Default                                  : No
    Forced                                   : No

    Audio #5
    ID                                       : 6
    Format                                   : AC-3
    Format/Info                              : Audio Coding 3
    Mode extension                           : CM (complete main)
    Muxing mode                              : Header stripping
    Codec ID                                 : A_AC3
    Duration                                 : 2h 2mn
    Bit rate mode                            : Constant
    Bit rate                                 : 640 Kbps
    Channel(s)                               : 6 channels
    Channel positions                        : Front: L C R, Side: L R, LFE
    Sampling rate                            : 48.0 KHz
    Bit depth                                : 16 bits
    Compression mode                         : Lossy
    Stream size                              : 559 MiB (7%)
    Title                                    : AVO, А.Гаврилов
    Language                                 : Russian
    Default                                  : No
    Forced                                   : No

    Audio #6
    ID                                       : 7
    Format                                   : AC-3
    Format/Info                              : Audio Coding 3
    Mode extension                           : CM (complete main)
    Muxing mode                              : Header stripping
    Codec ID                                 : A_AC3
    Duration                                 : 2h 2mn
    Bit rate mode                            : Constant
    Bit rate                                 : 640 Kbps
    Channel(s)                               : 6 channels
    Channel positions                        : Front: L C R, Side: L R, LFE
    Sampling rate                            : 48.0 KHz
    Bit depth                                : 16 bits
    Compression mode                         : Lossy
    Stream size                              : 559 MiB (7%)
    Title                                    : VO, unknown
    Language                                 : Russian
    Default                                  : No
    Forced                                   : No

    Audio #7
    ID                                       : 8
    Format                                   : AC-3
    Format/Info                              : Audio Coding 3
    Mode extension                           : CM (complete main)
    Muxing mode                              : Header stripping
    Codec ID                                 : A_AC3
    Duration                                 : 2h 2mn
    Bit rate mode                            : Constant
    Bit rate                                 : 640 Kbps
    Channel(s)                               : 6 channels
    Channel positions                        : Front: L C R, Side: L R, LFE
    Sampling rate                            : 48.0 KHz
    Bit depth                                : 16 bits
    Compression mode                         : Lossy
    Stream size                              : 559 MiB (7%)
    Language                                 : English
    Default                                  : No
    Forced                                   : No

    Text #1
    ID                                       : 9
    Format                                   : UTF-8
    Codec ID                                 : S_TEXT/UTF8
    Codec ID/Info                            : UTF-8 Plain Text
    Language                                 : Russian
    Default                                  : No
    Forced                                   : No

    Text #2
    ID                                       : 10
    Format                                   : UTF-8
    Codec ID                                 : S_TEXT/UTF8
    Codec ID/Info                            : UTF-8 Plain Text
    Title                                    : SDH
    Language                                 : English
    Default                                  : No
    Forced                                   : No

    Menu
    00:00:00.000                             : en:00:00:00.000
    00:02:00.746                             : en:00:02:00.746
    00:07:19.814                             : en:00:07:19.814
    00:10:17.075                             : en:00:10:17.075
    00:15:16.666                             : en:00:15:16.666
    00:18:20.891                             : en:00:18:20.891
    00:21:23.532                             : en:00:21:23.532
    00:25:49.798                             : en:00:25:49.798
    00:31:51.243                             : en:00:31:51.243
    00:36:35.568                             : en:00:36:35.568
    00:41:14.972                             : en:00:41:14.972
    00:45:23.638                             : en:00:45:23.638
    00:47:52.787                             : en:00:47:52.787
    00:53:05.349                             : en:00:53:05.349
    00:56:15.789                             : en:00:56:15.789
    00:59:33.403                             : en:00:59:33.403
    01:03:02.987                             : en:01:03:02.987
    01:07:36.177                             : en:01:07:36.177
    01:11:29.577                             : en:01:11:29.577
    01:16:17.823                             : en:01:16:17.823
    01:19:29.598                             : en:01:19:29.598
    01:20:53.473                             : en:01:20:53.473
    01:25:21.908                             : en:01:25:21.908
    01:26:31.186                             : en:01:26:31.186
    01:32:43.266                             : en:01:32:43.266
    01:34:33.835                             : en:01:34:33.835
    01:38:58.933                             : en:01:38:58.933
    01:40:27.146                             : en:01:40:27.146
    01:45:57.017                             : en:01:45:57.017
    01:49:40.115                             : en:01:49:40.115
    01:51:48.994                             : en:01:51:48.994
    01:55:38.556                             : en:01:55:38.556

    Свернуть


    x264

    x264 [info]: frame I:1107  Avg QP:12.98  size: 97219
    x264 [info]: frame P:31189 Avg QP:14.11  size: 57599
    x264 [info]: frame B:143527 Avg QP:16.39  size: 23044
    x264 [info]: consecutive B-frames:  1.0%  0.6%  2.8%  4.4%  7.0% 75.9%  3.9%  0.8%  1.3%  0.6%  0.5%  0.6%  0.7%
    Свернуть


    Скриншоты
    [screen]http://i74.fastpic.ru/big/2016/0619/db/7b7cad7f86ecc1c15ff4273c99a442db.png[/screen][screen]http://i76.fastpic.ru/big/2016/0619/95/7a2ab18854304e6072a023be7ef61895.png[/screen][screen]http://i76.fastpic.ru/big/2016/0619/63/3f5ce85e4dccdedb078cb7d670030163.png[/screen] Свернуть
    Похожие раздачи Искать похожие
    Инструкция по скачиванию
     1  Качаем uTorrent версии 2.0 и выше
     2  После установки, жмем выше под постером на ссылку Скачать [MediaGet] или Скачать .torrent
     3  Открываем скачанный файл через соответствующий клиент: MediaGet или uTorrent
     4  Ждем пока подключатся участники
     5  Качаем
    Комментарии о  Из ада / From Hell | BDRip 720p 
    Ближайшее в кино
    Вверх