• Игры для PS4
  • Игры для PS3
  • Игры для XBOX360
  • Игры для PC
  • Игры для PS2
  • Игры для PSP
  • Для телефонов
  • Музыка
  • Книги / Журналы
  • Обои
  • Опрос
    Откуда Вы о нас узнали?
      0
    • От знакомых2,1,false,300,full
    • Из социальных сетей2,2,false,300,full
    • Из поисковых систем2,3,false,300,full
    • Другое2,4,false,300,full
    Статистика
    Всего онлайн -
    Гостей -
    Пользователей -
    Короли трекера
    
    Благодарности () Закрыть
    Быстрее загружает сайты Экономит интернет—трафик Меняет оформление страницы ВК Блокирует всю рекламу на сайтах Загружает торренты как µTorrent клиент Объеденяет все твои чаты из соц. сетей в один Проигрывает твою музыку не заходя во ВКонтакте
    Новый интернет-браузер
    Оrbitum
    Скачать
    и многое другое... Подробности на сайте производителя
    Поезд на Париж / The 15:17 to Paris
    «A true story. The real heroes»

    Год выпуска: 2018
    Страна: США
    Производство: Village Roadshow Pictures, Warner Bros. Pictures, Malpaso Productions
    Жанр:  Триллер, драма, история

    Режиссёр: Клинт Иствуд
    В ролях: Спенсер Стоун, Энтони Сэдлер, Алек Скарлатос, Джуди Грир, Дженна Фишер, Рэй Корасани, Тони Хейл, Томас Леннон, Синква Уоллс, Лиллиэн Соланж Бодуан

    Перевод: Дублированный | Лицензия
    Субтитры: Русские, английские
    Реклама: Отсутствует

    Описание: В центре сюжета события, произошедшие ранним вечером 21 августа 2015 года, когда весь мир, затаив дыхание, наблюдал за предотвращением террористической атаки в скоростном поезде N 9364 тремя бравыми молодыми американцами, которые в это время путешествовали по Европе.



    Качество: BDRip-AVC
    Продолжительность: 01:33:52

    Формат: MKV
    Видео кодек: MPEG-4 AVC
    Аудио кодек: AC3
    Видео: 1024x428 (2.40:1), 23,976 fps, x264 ~2 087 kbps avg, 0.199 bit/pixel
    Аудио: 48 kHz, AC3 Dolby Digital, 3/2 (L,C,R,l,r) + LFE ch, ~448.00 kbps avg | RUS (Лицензия)
    Аудио: 48 kHz, AC3 Dolby Digital, 3/2 (L,C,R,l,r) + LFE ch, ~448.00 kbps avg | ENG

    Дата премьеры (мир): 7 февраля 2018
    Дата премьеры (РФ):

    MediaInfo

    Общее
    Уникальный идентификатор                 : 207303457554596570687346207389721117157 (0x9BF53192E953C38D8A4CE3746C8D41E5)
    Полное имя                               : E:OlLanDGroupThe.15.17.to.Paris.2018.BDRip(AVC).OlLanDGroup.mkv
    Формат                                   : Matroska
    Версия формата                           : Version 4 / Version 2
    Размер файла                             : 1,95 Гбайт
    Продолжительность                        : 1 ч. 33 м.
    Общий поток                              : 2977 Кбит/сек
    Название фильма                          : The.15.17.to.Paris.2018   #TorpedoUK#
    Дата кодирования                         : UTC 2018-05-16 00:24:58
    Программа кодирования                    : mkvmerge v8.3.0 ("Over the Horizon") 64bit
    Библиотека кодирования                   : libebml v1.3.1 + libmatroska v1.4.2

    Видео
    Идентификатор                            : 1
    Формат                                   : AVC
    Формат/Информация                        : Advanced Video Codec
    Профиль формата                          : High@L4.1
    Параметр CABAC формата                   : Да
    Параметр ReFrames формата                : 10 кадров
    Идентификатор кодека                     : V_MPEG4/ISO/AVC
    Продолжительность                        : 1 ч. 33 м.
    Битрейт                                  : 2087 Кбит/сек
    Ширина                                   : 1024 пикселя
    Высота                                   : 428 пикселей
    Соотношение сторон                       : 2,40:1
    Режим частоты кадров                     : Постоянный
    Частота кадров                           : 23,976 (24000/1001) кадра/сек
    Цветовое пространство                    : YUV
    Субдискретизация насыщенности            : 4:2:0
    Битовая глубина                          : 8 бит
    Тип развёртки                            : Прогрессивная
    Бит/(Пиксели*Кадры)                      : 0.199
    Размер потока                            : 1,36 Гбайт (70%)
    Библиотека кодирования                   : x264 core 146 r2538 121396c
    Настройки программы                      : cabac=1 / ref=10 / deblock=1:-3:-3 / analyse=0x3:0x133 / me=umh / subme=11 / psy=1 / psy_rd=1.00:0.04 / mixed_ref=1 / me_range=48 / chroma_me=1 / trellis=2 / 8x8dct=1 / cqm=0 / deadzone=21,11 / fast_pskip=1 / chroma_qp_offset=-3 / threads=6 / lookahead_threads=1 / sliced_threads=0 / nr=0 / decimate=1 / interlaced=0 / bluray_compat=0 / constrained_intra=0 / bframes=10 / b_pyramid=2 / b_adapt=2 / b_bias=0 / direct=3 / weightb=1 / open_gop=0 / weightp=2 / keyint=240 / keyint_min=23 / scenecut=40 / intra_refresh=0 / rc_lookahead=40 / rc=2pass / mbtree=0 / bitrate=2087 / ratetol=1.0 / qcomp=0.60 / qpmin=0 / qpmax=69 / qpstep=4 / cplxblur=20.0 / qblur=0.5 / vbv_maxrate=50000 / vbv_bufsize=62500 / nal_hrd=none / filler=0 / ip_ratio=1.40 / pb_ratio=1.30 / aq=1:1.00
    Язык                                     : English
    Default                                  : Да
    Forced                                   : Нет

    Аудио #1
    Идентификатор                            : 2
    Формат                                   : AC-3
    Формат/Информация                        : Audio Coding 3
    Расширение режима                        : CM (complete main)
    Параметр Endianness формата              : Big
    Идентификатор кодека                     : A_AC3
    Продолжительность                        : 1 ч. 33 м.
    Вид битрейта                             : Постоянный
    Битрейт                                  : 448 Кбит/сек
    Каналы                                   : 6 каналов
    Расположение каналов                     : Front: L C R, Side: L R, LFE
    Частота                                  : 48,0 КГц
    Частота кадров                           : 31,250 кадров/сек (1536 spf)
    Битовая глубина                          : 16 бит
    Метод сжатия                             : С потерями
    Размер потока                            : 301 Мбайт (15%)
    Заголовок                                : License
    Язык                                     : Russian
    Default                                  : Да
    Forced                                   : Нет

    Аудио #2
    Идентификатор                            : 3
    Формат                                   : AC-3
    Формат/Информация                        : Audio Coding 3
    Расширение режима                        : CM (complete main)
    Параметр Endianness формата              : Big
    Идентификатор кодека                     : A_AC3
    Продолжительность                        : 1 ч. 33 м.
    Вид битрейта                             : Постоянный
    Битрейт                                  : 448 Кбит/сек
    Каналы                                   : 6 каналов
    Расположение каналов                     : Front: L C R, Side: L R, LFE
    Частота                                  : 48,0 КГц
    Частота кадров                           : 31,250 кадров/сек (1536 spf)
    Битовая глубина                          : 16 бит
    Метод сжатия                             : С потерями
    Размер потока                            : 301 Мбайт (15%)
    Заголовок                                : Original
    Язык                                     : English
    Default                                  : Нет
    Forced                                   : Нет

    Текст #1
    Идентификатор                            : 4
    Формат                                   : UTF-8
    Идентификатор кодека                     : S_TEXT/UTF8
    Идентификатор кодека/Информация          : UTF-8 Plain Text
    Продолжительность                        : 1 ч. 31 м.
    Битрейт                                  : 4 бит/сек
    Count of elements                        : 61
    Размер потока                            : 2,81 Кбайт (0%)
    Заголовок                                : Forced
    Язык                                     : Russian
    Default                                  : Да
    Forced                                   : Нет

    Текст #2
    Идентификатор                            : 5
    Формат                                   : UTF-8
    Идентификатор кодека                     : S_TEXT/UTF8
    Идентификатор кодека/Информация          : UTF-8 Plain Text
    Продолжительность                        : 1 ч. 31 м.
    Битрейт                                  : 82 бит/сек
    Count of elements                        : 1484
    Размер потока                            : 55,7 Кбайт (0%)
    Заголовок                                : Full
    Язык                                     : Russian
    Default                                  : Нет
    Forced                                   : Нет

    Текст #3
    Идентификатор                            : 6
    Формат                                   : UTF-8
    Идентификатор кодека                     : S_TEXT/UTF8
    Идентификатор кодека/Информация          : UTF-8 Plain Text
    Продолжительность                        : 1 ч. 29 м.
    Битрейт                                  : 75 бит/сек
    Count of elements                        : 1623
    Размер потока                            : 49,3 Кбайт (0%)
    Заголовок                                : Full
    Язык                                     : English
    Default                                  : Нет
    Forced                                   : Нет

    Текст #4
    Идентификатор                            : 7
    Формат                                   : UTF-8
    Идентификатор кодека                     : S_TEXT/UTF8
    Идентификатор кодека/Информация          : UTF-8 Plain Text
    Продолжительность                        : 1 ч. 29 м.
    Битрейт                                  : 83 бит/сек
    Count of elements                        : 1757
    Размер потока                            : 54,7 Кбайт (0%)
    Заголовок                                : SDH
    Язык                                     : English
    Default                                  : Нет
    Forced                                   : Нет

    Меню
    00:00:00.000                             : en:Chapter 1
    00:09:51.924                             : en:Chapter 2
    00:19:23.203                             : en:Chapter 3
    00:30:49.264                             : en:Chapter 4
    00:44:00.304                             : en:Chapter 5
    00:52:51.168                             : en:Chapter 6
    01:04:22.608                             : en:Chapter 7
    01:11:52.766                             : en:Chapter 8
    01:21:46.151                             : en:Chapter 9
    01:27:00.340                             : en:Chapter 10
    Свернуть


    Скриншоты
    [screen]http://lostpix.com/img/2018-05/16/ct27ebkfhljo209fuzj6wat6p.jpg[/screen][screen]http://lostpix.com/img/2018-05/16/vzqvley67ua95fpu7ptb0jl56.jpg[/screen]
    [screen]http://lostpix.com/img/2018-05/16/mo130qju3ojyk4yix5o4j91zr.jpg[/screen][screen]http://lostpix.com/img/2018-05/16/2y2dtwq9nj85sw73kgv0pj4d2.jpg[/screen]
    [screen]http://lostpix.com/img/2018-05/16/43jvraybxf0ao857qr3i3042o.jpg[/screen][screen]http://lostpix.com/img/2018-05/16/duigxa0qju8kj9o90365zlrtd.jpg[/screen]
    Свернуть
    Похожие раздачи Искать похожие
    Инструкция по скачиванию
     1  Качаем uTorrent версии 2.0 и выше
     2  После установки, жмем выше под постером на ссылку Скачать [MediaGet] или Скачать .torrent
     3  Открываем скачанный файл через соответствующий клиент: MediaGet или uTorrent
     4  Ждем пока подключатся участники
     5  Качаем
    Комментарии о  Поезд на Париж / The 15:17 to Paris | BDRip-AVC 
    Ближайшее в кино
    Вверх