• Игры для PS4
  • Игры для PS3
  • Игры для XBOX360
  • Игры для PC
  • Игры для PS2
  • Игры для PSP
  • Для телефонов
  • Музыка
  • Книги / Журналы
  • Обои
  • Опрос
    Удобен ли сайт в использовании?
      0
    • Очень удобен, все понятно1,1,false,300,full
    • Удобен1,2,false,300,full
    • Средне1,3,false,300,full
    • Неудобен, трудно ориентироваться1,4,false,300,full
    • Совсем неудобен1,5,false,300,full
    Статистика
    Всего онлайн -
    Гостей -
    Пользователей -
    Короли трекера
    
    Благодарности () Закрыть
    Быстрее загружает сайты Экономит интернет—трафик Меняет оформление страницы ВК Блокирует всю рекламу на сайтах Загружает торренты как µTorrent клиент Объеденяет все твои чаты из соц. сетей в один Проигрывает твою музыку не заходя во ВКонтакте
    Новый интернет-браузер
    Оrbitum
    Скачать
    и многое другое... Подробности на сайте производителя
    Информация о фильме
    Название: Северино
    Оригинальное название: Severino
    Год выхода: 1978
    Жанр: Драма, вестерн
    Режиссер: Клаус Добберк
    В ролях: Гойко Митич, Виолета Андрей, Леон Немчик, Константин Фугасин, Мирчи Анхелеску, Эманоилl Петрут, Зефи Алчек, Гельмут Шрайбер, Марсель Анхелеску, Юри Дари, Ион Дикисяну, Вилли Шрайде, Томас Фолфф

    О фильме:
    Северино, южноамериканский индеец племени манзанеро, возвращается в родную деревню после 10-летнего отсутствия, чтобы забрать с собой своего младшего брата. Он работал у белых, накопил денег и теперь собирается купить земельный участок на Севере, чтобы начать новую жизнь. Но в его родной деревне драматически обострилась ситуация. Кто-то угоняет скот, нападает на индейцев и на белых поселенцев, явно желая натравить их друг на друга. Северино остается, он хочет добиться, чтобы индейцы мирно жили рядом с белыми…

    Страна: Дефа студия, Германия (ГДР)
    Продолжительность: 01:18:30
    Перевод: Профессиональный одноголосый (В. Дорошенко, Студия "Довженко")

    Формат: MKV
    Качество: BDRip-AVC
    Видео: MPEG-4 AVC, 956x576 (5:3), 25.000 fps, 3620 Kbps, 0.263 bit/pixel
    Аудио: 48 kHz, AC3, 2.0 ch, ~384 kbps avg - Rus
    Аудио: 48 kHz, AC3, 2.0 ch, ~192 kbps avg - Ger

    MI
    General
    Unique ID                                : 186623941851137154088787553946237495639 (0x8C6676BB460C3FA7AE91E5934E916957)
    Complete name                            : D:Severino.1978.VO.BDRip.AVC.ExKinoRay.mkv
    Format                                   : Matroska
    Format version                           : Version 2
    File size                                : 2.30 GiB
    Duration                                 : 1 h 18 min
    Overall bit rate                         : 4 198 kb/s
    Movie name                               : Северино (1978) from ExKinoRay
    Encoded date                             : UTC 2018-05-15 18:35:31
    Writing application                      : mkvmerge v5.6.0 ("Kenya Kane") built on May 27 2012 16:44:04
    Writing library                          : libebml v1.2.3 + libmatroska v1.3.0

    Video
    ID                                       : 1
    Format                                   : AVC
    Format/Info                              : Advanced Video Codec
    Format profile                           : High@L4.1
    Format settings, CABAC                   : Yes
    Format settings, ReFrames                : 14 frames
    Codec ID                                 : V_MPEG4/ISO/AVC
    Duration                                 : 1 h 18 min
    Bit rate                                 : 3 620 kb/s
    Width                                    : 956 pixels
    Height                                   : 576 pixels
    Display aspect ratio                     : 5:3
    Frame rate mode                          : Constant
    Frame rate                               : 25.000 FPS
    Color space                              : YUV
    Chroma subsampling                       : 4:2:0
    Bit depth                                : 8 bits
    Scan type                                : Progressive
    Bits/(Pixel*Frame)                       : 0.263
    Stream size                              : 1.94 GiB (84%)
    Title                                    : Enigma
    Writing library                          : x264 core 152 r2851 ba24899
    Encoding settings                        : cabac=1 / ref=14 / deblock=1:-2:-2 / analyse=0x3:0x113 / me=umh / subme=10 / psy=1 / psy_rd=0.93:0.10 / mixed_ref=1 / me_range=32 / chroma_me=1 / trellis=2 / 8x8dct=1 / cqm=0 / deadzone=21,11 / fast_pskip=0 / chroma_qp_offset=-3 / threads=12 / lookahead_threads=3 / sliced_threads=0 / nr=0 / decimate=0 / interlaced=0 / bluray_compat=0 / constrained_intra=0 / bframes=12 / b_pyramid=2 / b_adapt=2 / b_bias=0 / direct=3 / weightb=1 / open_gop=0 / weightp=2 / keyint=240 / keyint_min=24 / scenecut=40 / intra_refresh=0 / rc_lookahead=40 / rc=2pass / mbtree=0 / bitrate=3620 / ratetol=1.0 / qcomp=0.60 / qpmin=0 / qpmax=51 / qpstep=4 / cplxblur=20.0 / qblur=0.5 / vbv_maxrate=50000 / vbv_bufsize=62500 / nal_hrd=none / filler=0 / ip_ratio=1.40 / pb_ratio=1.30 / aq=3:0.80
    Language                                 : English
    Default                                  : Yes
    Forced                                   : No
    Color range                              : Limited
    Color primaries                          : BT.709
    Transfer characteristics                 : BT.709
    Matrix coefficients                      : BT.709

    Audio #1
    ID                                       : 2
    Format                                   : AC-3
    Format/Info                              : Audio Coding 3
    Mode extension                           : CM (complete main)
    Format settings, Endianness              : Big
    Codec ID                                 : A_AC3
    Duration                                 : 1 h 18 min
    Bit rate mode                            : Constant
    Bit rate                                 : 384 kb/s
    Channel(s)                               : 2 channels
    Channel positions                        : Front: L R
    Sampling rate                            : 48.0 kHz
    Frame rate                               : 31.250 FPS (1536 spf)
    Compression mode                         : Lossy
    Stream size                              : 216 MiB (9%)
    Title                                    : VO
    Language                                 : Russian
    Default                                  : Yes
    Forced                                   : No

    Audio #2
    ID                                       : 3
    Format                                   : AC-3
    Format/Info                              : Audio Coding 3
    Mode extension                           : CM (complete main)
    Format settings, Endianness              : Big
    Codec ID                                 : A_AC3
    Duration                                 : 1 h 18 min
    Bit rate mode                            : Constant
    Bit rate                                 : 192 kb/s
    Channel(s)                               : 2 channels
    Channel positions                        : Front: L R
    Sampling rate                            : 48.0 kHz
    Frame rate                               : 31.250 FPS (1536 spf)
    Compression mode                         : Lossy
    Stream size                              : 108 MiB (5%)
    Language                                 : German
    Default                                  : No
    Forced                                   : No

    Menu
    00:00:00.000                             : :Chapter 01
    00:15:03.600                             : :Chapter 02
    00:28:55.719                             : :Chapter 03
    00:41:33.960                             : :Chapter 04
    00:57:46.480                             : :Chapter 05
    01:13:55.360                             : :Chapter 06
    01:18:24.200                             : :Chapter 07

    Свернуть


    [img]http://lostpix.com/img/2018-05/16/tho42oew3justb0m4f1kroe73.png[/img][img]http://lostpix.com/img/2018-05/16/bj4rmz2gqfkd2dmlv6nvig29r.png[/img][img]http://lostpix.com/img/2018-05/16/invfgxo0f1l6srlx3p62rxec6.png[/img][img]http://lostpix.com/img/2018-05/16/l53cioiobwnhnzc6got9495vz.png[/img][img]http://lostpix.com/img/2018-05/16/mi4pej08lhltvng0utywp6b95.png[/img][img]http://lostpix.com/img/2018-05/16/57ypwbypq4uz3rba4uvg2v1kj.png[/img]
    Похожие раздачи Искать похожие
    Инструкция по скачиванию
     1  Качаем uTorrent версии 2.0 и выше
     2  После установки, жмем выше под постером на ссылку Скачать [MediaGet] или Скачать .torrent
     3  Открываем скачанный файл через соответствующий клиент: MediaGet или uTorrent
     4  Ждем пока подключатся участники
     5  Качаем
    Комментарии о  Северино / Severino | BDRip-AVC 
    Ближайшее в кино
    Вверх