• Игры для PS4
  • Игры для PS3
  • Игры для XBOX360
  • Игры для PC
  • Игры для PS2
  • Игры для PSP
  • Для телефонов
  • Музыка
  • Книги / Журналы
  • Обои
  • Опрос
    Откуда Вы о нас узнали?
      0
    • От знакомых2,1,false,300,full
    • Из социальных сетей2,2,false,300,full
    • Из поисковых систем2,3,false,300,full
    • Другое2,4,false,300,full
    Статистика
    Всего онлайн -
    Гостей -
    Пользователей -
    Короли трекера
    
    Благодарности () Закрыть
    Быстрее загружает сайты Экономит интернет—трафик Меняет оформление страницы ВК Блокирует всю рекламу на сайтах Загружает торренты как µTorrent клиент Объеденяет все твои чаты из соц. сетей в один Проигрывает твою музыку не заходя во ВКонтакте
    Новый интернет-браузер
    Оrbitum
    Скачать
    и многое другое... Подробности на сайте производителя
    Импровизация

    Страна: Россия [img]http://st.kp.yandex.net/images/flags/flag-2.gif[/img]
    Производство: Comedy Club Production, Телеканал ТНТ
    Год выпуска: 2018
    Жанр:  ТВ-шоу, юмор, комедия
    Продолжительность: х ~00:45:00

    Ведущий: Павел Воля
    Участники: Антон Шастун, Арсений Попов, Дмитрий Позов, Сергей Матвиенко
    Описание: Это непредсказуемое комедийное шоу от Comedy Club Production. В нём нет сценария и всё, происходящее на сцене, придумывается участниками на ходу. Под управлением ведущего Павла Воли четыре комика и один звездный гость оказываются в самых странных ситуациях — и выбираются из них с юмором. В программе также участвуют приглашённые звёзды...



    Перевод: не требуется (оригинал)
    Субтитры: нет

    Качество: SATRip
    Формат: AVI
    Видео кодек: XviD
    Аудио кодек: МР3
    Видео: 720x400 (16:9), 25.000 fps, XviD ~1 800 kbps avg
    Аудио: 48.0 kHz, MPEG Layer 3, 2 ch, ~128 kbps avg

    Media Info
    General
    General
    Complete name                  : Improvizacija.s4.01.(06.02.2018).avi
    Format                         : AVI
    Format/Info                    : Audio Video Interleave
    File size                      : 618 MiB
    Duration                       : 44mn 35s
    Overall bit rate               : 1 937 Kbps
    Writing application            : VirtualDubMod 1.5.10.3 | www.virtualdub-fr.org || (build 2550/release)
    Writing library                : VirtualDubMod build 2550/release

    Video
    ID                             : 0
    Format                         : MPEG-4 Visual
    Format profile                 : Advanced Simple@L5
    Format settings, BVOP          : 2
    Format settings, QPel          : No
    Format settings, GMC           : No warppoints
    Format settings, Matrix        : Default (H.263)
    Codec ID                       : XVID
    Codec ID/Hint                  : XviD
    Duration                       : 44mn 35s
    Bit rate                       : 1 800 Kbps
    Width                          : 720 pixels
    Height                         : 400 pixels
    Display aspect ratio           : 16:9
    Frame rate                     : 25.000 fps
    Color space                    : YUV
    Chroma subsampling             : 4:2:0
    Bit depth                      : 8 bits
    Scan type                      : Progressive
    Compression mode               : Lossy
    Bits/(Pixel*Frame)             : 0.250
    Stream size                    : 574 MiB (93%)
    Writing library                : XviD 1.2.1 (UTC 2008-12-04)

    Audio
    ID                             : 1
    Format                         : MPEG Audio
    Format version                 : Version 1
    Format profile                 : Layer 3
    Mode                           : Joint stereo
    Mode extension                 : MS Stereo
    Codec ID                       : 55
    Codec ID/Hint                  : MP3
    Duration                       : 44mn 35s
    Bit rate mode                  : Constant
    Bit rate                       : 128 Kbps
    Channel(s)                     : 2 channels
    Sampling rate                  : 48.0 KHz
    Compression mode               : Lossy
    Stream size                    : 40.8 MiB (7%)
    Alignment                      : Aligned on interleaves
    Interleave, duration           : 40 ms (1.00 video frame)
    Interleave, preload duration   : 504 ms
    Writing library                : LAME3.99r
    Encoding settings              : -m j -V 4 -q 9 -lowpass 17 -b 128Свернуть


    Скриншоты
    [screen]http://img12.lostpic.net/2018/04/04/bdc0288411db73803d5463a3e266df7a.jpg[/screen][screen]http://img12.lostpic.net/2018/04/04/44a38c26b0cd76582d25aa24b0fe454b.jpg[/screen][screen]http://img12.lostpic.net/2018/04/04/1e565828399b28ce7a0f612cf232c5c1.jpg[/screen]Свернуть
    Инструкция по скачиванию
     1  Качаем uTorrent версии 2.0 и выше
     2  После установки, жмем выше под постером на ссылку Скачать [MediaGet] или Скачать .torrent
     3  Открываем скачанный файл через соответствующий клиент: MediaGet или uTorrent
     4  Ждем пока подключатся участники
     5  Качаем
    Комментарии о  Импровизация [Сезон 04 | 01-11 серии] | SATRip 
    Ближайшее в кино
    Вверх