• Игры для PS4
  • Игры для PS3
  • Игры для XBOX360
  • Игры для PC
  • Игры для PS2
  • Игры для PSP
  • Для телефонов
  • Музыка
  • Книги / Журналы
  • Обои
  • Опрос
    Откуда Вы о нас узнали?
      0
    • От знакомых2,1,false,300,full
    • Из социальных сетей2,2,false,300,full
    • Из поисковых систем2,3,false,300,full
    • Другое2,4,false,300,full
    Статистика
    Всего онлайн -
    Гостей -
    Пользователей -
    Короли трекера
    Благодарности () Закрыть
    Информация о фильме
    Название: Молодость, больница, любовь
    Оригинальное название: Young Doctors in Love
    Год выхода: 1982
    Жанр:  Комедия
    Режиссер: Гэрри Маршалл
    В ролях: Майкл МакКин, Шон Янг, Гарри Дин Стэнтон, Патрик Макни, Гектор Элизондо, Пэмела Рид, Деми Мур, Тейлор Негрон, Джанин Тёрнер

    О фильме :
    Когда команда студентов-медиков приходит на практику-интернатуру в городскую больницу, все в ней переворачивается вверх дном. Рвущимся в бой гиперсексуальным практикантам предстоит на пути к гордому званию врача вынести все уколы, стрелы и скальпели в этой гостеприимной и безумной больнице, в которой стены выкрашены как в кафе-мороженном, в медицинских сосудах плавают золотые рыбки, в ординаторской на кушетке под простыней прячется стриптизерша, а лучший способ избавиться от страха перед операционной - позаниматься там любовью.



    Страна: США
    Студия: ABC Motion Pictures
    Продолжительность: 01:35:34
    Перевод 1: Авторский (одноголосный, закадровый) - Алексей Михалёв
    Перевод 2: Авторский (одноголосный, закадровый) - Павел Санаев

    Файл
    Формат: MKV
    Качество: HDRip-AVC
    Видео: MPEG-4 AVC, 752x424, ~ 938 Кбит/с
    Аудио 1: [img]http://i93.fastpic.ru/big/2017/0727/c0/4b72f0369a3393219ed5935e91fc15c0.gif[/img] AAC-HE, 2 ch, ~ 76 Кбит/с | AVO, Михалёв
    Аудио 2: [img]http://i93.fastpic.ru/big/2017/0727/c0/4b72f0369a3393219ed5935e91fc15c0.gif[/img] AAC-HE, 2 ch, ~ 76 Кбит/с | AVO, Санаев
    Субтитры: Нет

    MI
    Общее
    Уникальный идентификатор : 184349029993359265403511978376564195797 (0x8AB054EAD5B76375AD94996AD8D641D5)
    Полное имя : D:MOVIESYoung.Doctors.in.Love.1982.ExKinoRay.mkv
    Формат : Matroska
    Версия формата : Version 4 / Version 2
    Размер файла : 747 Мбайт
    Продолжительность : 1 ч. 35 м.
    Общий поток : 1090 Кбит/сек
    Дата кодирования : UTC 2018-05-16 05:14:47
    Программа кодирования : mkvmerge v15.0.0 ("Duel with the Devil") 64-bit
    Библиотека кодирования : libebml v1.3.5 + libmatroska v1.4.5

    Видео
    Идентификатор : 1
    Формат : AVC
    Формат/Информация : Advanced Video Codec
    Профиль формата : High@L4.1
    Параметр CABAC формата : Да
    Параметр RefFrames формата : 10 кадров
    Идентификатор кодека : V_MPEG4/ISO/AVC
    Продолжительность : 1 ч. 35 м.
    Битрейт : 938 Кбит/сек
    Ширина : 752 пикселя
    Высота : 424 пикселя
    Соотношение сторон : 16:9
    Режим частоты кадров : Постоянный
    Частота кадров : 23,976 (24000/1001) кадра/сек
    Цветовое пространство : YUV
    Субдискретизация насыщенности : 4:2:0
    Битовая глубина : 8 бит
    Тип развёртки : Прогрессивная
    Бит/(Пиксели*Кадры) : 0.123
    Размер потока : 641 Мбайт (86%)
    Библиотека кодирования : x264 core 155 r2901 7d0ff22
    Настройки программы : cabac=1 / ref=10 / deblock=1:-3:-3 / analyse=0x3:0x133 / me=umh / subme=11 / psy=1 / psy_rd=1.00:0.14 / mixed_ref=1 / me_range=32 / chroma_me=1 / trellis=2 / 8x8dct=1 / cqm=0 / deadzone=21,11 / fast_pskip=0 / chroma_qp_offset=-3 / threads=6 / lookahead_threads=1 / sliced_threads=0 / nr=0 / decimate=0 / interlaced=0 / bluray_compat=0 / constrained_intra=0 / bframes=10 / b_pyramid=2 / b_adapt=2 / b_bias=0 / direct=3 / weightb=1 / open_gop=0 / weightp=2 / keyint=240 / keyint_min=23 / scenecut=40 / intra_refresh=0 / rc_lookahead=40 / rc=2pass / mbtree=1 / bitrate=938 / ratetol=1.0 / qcomp=0.60 / qpmin=0 / qpmax=69 / qpstep=4 / cplxblur=20.0 / qblur=0.5 / vbv_maxrate=50000 / vbv_bufsize=62500 / nal_hrd=none / filler=0 / ip_ratio=1.40 / aq=3:1.00
    Default : Да
    Forced : Нет

    Аудио #1
    Идентификатор : 2
    Формат : AAC
    Формат/Информация : Advanced Audio Codec
    Профиль формата : HE-AAC / LC
    Идентификатор кодека : A_AAC
    Продолжительность : 1 ч. 35 м.
    Битрейт : 76,0 Кбит/сек
    Каналы : 2 канала
    Расположение каналов : Front: L R
    Частота : 48,0 КГц / 24,0 КГц
    Частота кадров : 23,438 кадра/сек (1024 SPF)
    Метод сжатия : С потерями
    Задержка видео : 31 мс.
    Размер потока : 52,0 Мбайт (7%)
    Заголовок : Алексей Михалёв
    Язык : Russian
    Default : Да
    Forced : Нет

    Аудио #2
    Идентификатор : 3
    Формат : AAC
    Формат/Информация : Advanced Audio Codec
    Профиль формата : HE-AAC / LC
    Идентификатор кодека : A_AAC
    Продолжительность : 1 ч. 35 м.
    Битрейт : 76,0 Кбит/сек
    Каналы : 2 канала
    Расположение каналов : Front: L R
    Частота : 48,0 КГц / 24,0 КГц
    Частота кадров : 23,438 кадра/сек (1024 SPF)
    Метод сжатия : С потерями
    Задержка видео : 23 с. 3 мс.
    Размер потока : 51,8 Мбайт (7%)
    Заголовок : Павел Санаев
    Язык : Russian
    Default : Нет
    Forced : Нет

    Меню
    00:00:00.000 : en:00:00:00.000
    00:14:12.812 : en:00:14:12.812
    00:23:06.845 : en:00:23:06.845
    00:32:36.664 : en:00:32:36.664
    00:43:44.415 : en:00:43:44.415
    00:55:52.892 : en:00:55:52.892
    01:07:41.350 : en:01:07:41.350
    01:19:50.245 : en:01:19:50.245
    Свернуть


    Скриншоты
    [screen]http://i104.fastpic.ru/big/2018/0516/c6/1182406908aa263bb14f293a480cbec6.jpg[/screen][screen]http://i105.fastpic.ru/big/2018/0516/63/eafd26473f6ebc6ad6e90cd60af77763.jpg[/screen][screen]http://i105.fastpic.ru/big/2018/0516/16/18ae14fcefdc7ad30da673b068542716.jpg[/screen][screen]http://i104.fastpic.ru/big/2018/0516/73/64b026fe4fa4c3baecf670762b3eca73.jpg[/screen]

    [screen]http://i104.fastpic.ru/big/2018/0516/29/cd7617999e6f1bb8b858f8c8f13e8829.jpg[/screen][screen]http://i104.fastpic.ru/big/2018/0516/6e/8414327d1eb497dfbe28338c1e15616e.jpg[/screen][screen]http://i104.fastpic.ru/big/2018/0516/a1/3f6f01efd0630e7399718092cc21eba1.jpg[/screen][screen]http://i104.fastpic.ru/big/2018/0516/95/458b0e68696d2c023b894d59804d6495.jpg[/screen]Свернуть
    Похожие раздачи Искать похожие
    Инструкция по скачиванию
     1  Качаем uTorrent версии 2.0 и выше
     2  После установки, жмем выше под постером на ссылку Скачать [MediaGet] или Скачать .torrent
     3  Открываем скачанный файл через соответствующий клиент: MediaGet или uTorrent
     4  Ждем пока подключатся участники
     5  Качаем
    Комментарии о  Молодость, больница, любовь / Young Doctors in Love | HDRip-AVC 
    Ближайшее в кино
    Вверх