• Игры для PS4
  • Игры для PS3
  • Игры для XBOX360
  • Игры для PC
  • Игры для PS2
  • Игры для PSP
  • Для телефонов
  • Музыка
  • Книги / Журналы
  • Обои
  • Опрос
    Откуда Вы о нас узнали?
      0
    • От знакомых2,1,false,300,full
    • Из социальных сетей2,2,false,300,full
    • Из поисковых систем2,3,false,300,full
    • Другое2,4,false,300,full
    Статистика
    Всего онлайн -
    Гостей -
    Пользователей -
    Короли трекера
    
    Благодарности () Закрыть
    Быстрее загружает сайты Экономит интернет—трафик Меняет оформление страницы ВК Блокирует всю рекламу на сайтах Загружает торренты как µTorrent клиент Объеденяет все твои чаты из соц. сетей в один Проигрывает твою музыку не заходя во ВКонтакте
    Новый интернет-браузер
    Оrbitum
    Скачать
    и многое другое... Подробности на сайте производителя
    Производство: Киностудия им. Довженко

    Жанр:  мелодрама
    Год выпуска: 1960
    Продолжительность: 01:29:54

    Перевод: Не требуется
    Cубтитры: нет
    Оригинальная аудиодорожка: русский

    Режиссер: Владимир Денисенко

    В ролях:
    Павел Морозенко, Людмила Гурченко, Анатолий Скибенко, Михаил Заднепровский, Софья Карамаш, Сергей Петров, Н. Журавлёв, Лев Олевский, Пётр Вескляров, Оля Машек, Николай Рушковский, Татьяна Бестаева, Алексей Смирнов...

    Описание:
    В итальянский порт прищёл торговый советский корабль. Моряк Роман (Павел Морозенко) сошёл на берег. На одной из площадей он услышал пение. Это пела Франческа (Людмила Гурченко). Моряк был восхищен её голосом и красотой. Долго бродили они в тот день по старинным улицам и площадям. А наутро началась война. Советскому судну нужно было срочно возвращаться на родину. Трудно было расставаться влюблённым, но они верят, что обязательно встретятся.

    [img]http://picplus.ru/img/1805/15/eafe9358.png[/img]
    [img]http://new-team.org/images/sample_video.png[/img]

    Источник: DVD5 R5
    Качество видео: DVDRip
    Формат видео: AVI

    Видео: 688х512 (4:3), 25 fps, XviD ~ 1339 kbps avg, 0.152 bit/pixel
    Аудио: 48 kHz, Dolby Digital AC3 5.1, 384 kbps

    MediaInfo

    Общее
    Полное имя                               : Roman.i.Francheska.1960.DVDRip_[New-team]_by_AVP_Studio.avi
    Формат                                   : AVI
    Формат/Информация                        : Audio Video Interleave
    Размер файла                             : 1,09 Гбайт
    Продолжительность                        : 1 ч. 29 м.
    Общий поток                              : 1733 Кбит/сек
    Программа кодирования                    : VirtualDubMod 1.5.10.3 | www.virtualdub-fr.org || (build 2550/release)
    Библиотека кодирования                   : VirtualDubMod build 2550/release

    Видео
    Идентификатор                            : 0
    Формат                                   : MPEG-4 Visual
    Профиль формата                          : Advanced Simple@L5
    Настройки формата                        : BVOP1 / Custom Matrix
    Параметр BVOP формата                    : 1
    Параметр QPel формата                    : Нет
    Параметр GMC формата                     : Без точки перехода
    Параметр матрицы формата                 : Выборочная
    Идентификатор кодека                     : XVID
    Идентификатор кодека/Подсказка           : XviD
    Продолжительность                        : 1 ч. 29 м.
    Битрейт                                  : 1339 Кбит/сек
    Ширина                                   : 688 пикселей
    Высота                                   : 512 пикселей
    Соотношение сторон                       : 4:3
    Частота кадров                           : 25,000 кадров/сек
    Цветовое пространство                    : YUV
    Субдискретизация насыщенности            : 4:2:0
    Битовая глубина                          : 8 бит
    Тип развёртки                            : Прогрессивная
    Метод сжатия                             : С потерями
    Бит/(Пиксели*Кадры)                      : 0.152
    Размер потока                            : 861 Мбайт (77%)
    Библиотека кодирования                   : XviD 73

    Аудио
    Идентификатор                            : 1
    Формат                                   : AC-3
    Формат/Информация                        : Audio Coding 3
    Идентификатор кодека                     : 2000
    Продолжительность                        : 1 ч. 29 м.
    Вид битрейта                             : Постоянный
    Битрейт                                  : 384 Кбит/сек
    Каналы                                   : 6 каналов
    Расположение каналов                     : Front: L C R, Side: L R, LFE
    Частота                                  : 48,0 КГц
    Частота кадров                           : 31,250 кадров/сек (1536 SPF)
    Битовая глубина                          : 16 бит
    Метод сжатия                             : С потерями
    Размер потока                            : 247 Мбайт (22%)
    Выравнивание                             : Разделение по промежуткам
    Продолжительность промежутка             : 40  мс. (1,00 видеокадр)
    Время предзагрузки промежутка            : 500  мс
    Свернуть


    Инструкция по скачиванию
     1  Качаем uTorrent версии 2.0 и выше
     2  После установки, жмем выше под постером на ссылку Скачать [MediaGet] или Скачать .torrent
     3  Открываем скачанный файл через соответствующий клиент: MediaGet или uTorrent
     4  Ждем пока подключатся участники
     5  Качаем
    Комментарии о  Роман и Франческа | DVDRip 
    Ближайшее в кино
    Вверх