• Игры для PS4
  • Игры для PS3
  • Игры для XBOX360
  • Игры для PC
  • Игры для PS2
  • Игры для PSP
  • Для телефонов
  • Музыка
  • Книги/Журналы
  • Обои
  •  
    Опрос
    Удобен ли сайт в использовании?
      0
    • Очень удобен, все понятно1,1,false,300,full
    • Удобен1,2,false,300,full
    • Средне1,3,false,300,full
    • Неудобен, трудно ориентироваться1,4,false,300,full
    • Совсем неудобен1,5,false,300,full
    Статистика
    Загрузка...
    Шерлок Холмс / Sherlock Holmes | BDRip 720p
    Статус  Проверено
    В закладки
    Модератор: Max

    Шерлок Холмс / Sherlock Holmes | BDRip 720p [Фильмы 2009] скачать торрентом/torrent бесплатно

    Год выхода
    Язык
    Закачал
    Аноним | 16 мая в 13ч 30м 35с
    Раздел
    Отзывов
    0
    Раздают: 17 Качают: 1 Скачали: 117 Размер: 7.76 GB
    Инфо о раздаче | Благодарности |
    0/5
    0
    0 5 0
    Поддержи нас — расскажи друзьям!
    Orbitum
    Новый интернет-браузер Быстрее загружает сайты Экономит интернет—трафик Меняет оформление страницы ВК Блокирует всю рекламу на сайтах Загружает торренты как

    µTorrent

    клиент
    Объеденяет все твои чаты из соц. сетей в один Проигрывает твою музыку не заходя во ВКонтакте
    Скачать и многое другое... Подробности на сайте производителя
    Оригинальное название: Sherlock Holmes
    Год выпуска: 2009
    Жанр: боевик, триллер, драма, комедия, криминал, детектив, приключения
    Выпущено: США, Германия
    Режиссер: Гай Ричи
    В ролях: Роберт Дауни мл. , Джуд Лоу , Рэйчел МакАдамс , Марк Стронг , Эдди Марсан , Роберт Мэйллет , Джеральдин Джеймс , Келли Райлли , Уильям Хьюстон , Ганс Мэтисон , Джеймс Фокс , Уильям Хоуп
    Перевод: Дублированный, Профессиональный (двухголосый), Авторский (одноголосый)

    Сюжет фильма:
    Величайший в истории сыщик Шерлок Холмс вместе со своим верным соратником Ватсоном вступают в схватку, требующую нешуточной физической и умственной подготовки, ведь их враг представляет угрозу для всего Лондона.

    Качество: BDRip 720p
    Формат: AVC  (библиотека кодирования x.264)
    Контейнер (Расширение): MKV
    Видео: 1280x720 (16:9), 5640 Кбит/сек, 23,976 кадр/сек, 0,255 Бит/[Пиксели*Кадры]
    Аудио №1: русский / AC3 / 5.1 / 48 kHz / 448 kbps / 16 bit |Дублированный|
    Аудио №2: русский / AC3 / 5.1 / 48 kHz / 640 kbps / 16 bit |Авторский одноголосый, Гаврилов|
    Аудио №3: русский / AC3 / 5.1 / 48 kHz / 640 kbps / 16 bit |Авторский одноголосый, Сербин|
    Аудио №4: русский / AC3 / 5.1 / 48 kHz / 640 kbps / 16 bit |Двухголосый закадровый, BBC Saint-Petersburg|
    Аудио №5: английский / AC3 / 5.1 / 48 kHz / 640 kbps /
    Субтитры: русские (Forced), русские (Full), русские (Voronine), русские (Voronine, Colored), русские (Voronine, SDH), английские (Full), английские (SDH)
    Навигация по главам(Чаптеры): есть
    Продолжительность: 02:08:24

    MediaInfo


    Format                                   : Matroska
    Format version                           : Version 2
    File size                                : 7.76 GiB
    Duration                                 : 2h 8mn
    Overall bit rate                         : 8 650 Kbps
    Movie name                               : Sherlok Holms.(2009).BDRip.720p.[denis100]
    Encoded date                             : UTC 2015-04-20 08:46:04
    Writing application                      : mkvmerge v5.8.0 ("No Sleep / Pillow") built on Sep  2 2012 15:37:04
    Writing library                          : libebml v1.2.3 + libmatroska v1.3.0

    Video
    ID                                       : 1
    Format                                   : AVC
    Format/Info                              : Advanced Video Codec
    Format profile                           : High@L4.1
    Format settings, CABAC                   : Yes
    Format settings, ReFrames                : 9 frames
    Codec ID                                 : V_MPEG4/ISO/AVC
    Duration                                 : 2h 8mn
    Bit rate                                 : 5 640 Kbps
    Width                                    : 1 280 pixels
    Height                                   : 720 pixels
    Display aspect ratio                     : 16:9
    Frame rate                               : 23.976 fps
    Color space                              : YUV
    Chroma subsampling                       : 4:2:0
    Bit depth                                : 8 bits
    Scan type                                : Progressive
    Bits/(Pixel*Frame)                       : 0.255
    Stream size                              : 4.91 GiB (63%)
    Title                                    : Sherlok Holms.(2009).BDRip.720p.[denis100]
    Writing library                          : x264 core 146 r2538 121396c
    Encoding settings                        : cabac=1 / ref=9 / deblock=1:-3:-3 / analyse=0x3:0x133 / me=umh / subme=11 / psy=1 / psy_rd=1.00:0.15 / mixed_ref=1 / me_range=48 / chroma_me=1 / trellis=2 / 8x8dct=1 / cqm=0 / deadzone=21,11 / fast_pskip=0 / chroma_qp_offset=-3 / threads=6 / lookahead_threads=1 / sliced_threads=0 / nr=0 / decimate=1 / interlaced=0 / bluray_compat=0 / constrained_intra=0 / bframes=10 / b_pyramid=2 / b_adapt=2 / b_bias=0 / direct=3 / weightb=1 / open_gop=0 / weightp=2 / keyint=240 / keyint_min=23 / scenecut=40 / intra_refresh=0 / rc=2pass / mbtree=0 / bitrate=5640 / ratetol=1.0 / qcomp=0.60 / qpmin=0 / qpmax=69 / qpstep=4 / cplxblur=20.0 / qblur=0.5 / ip_ratio=1.40 / pb_ratio=1.30 / aq=1:0.90
    Language                                 : English
    Default                                  : Yes
    Forced                                   : No

    Audio #1
    ID                                       : 2
    Format                                   : AC-3
    Format/Info                              : Audio Coding 3
    Mode extension                           : CM (complete main)
    Codec ID                                 : A_AC3
    Duration                                 : 2h 8mn
    Bit rate mode                            : Constant
    Bit rate                                 : 448 Kbps
    Channel(s)                               : 6 channels
    Channel positions                        : Front: L C R, Side: L R, LFE
    Sampling rate                            : 48.0 KHz
    Bit depth                                : 16 bits
    Compression mode                         : Lossy
    Stream size                              : 411 MiB (5%)
    Title                                    : Дублированный
    Language                                 : Russian
    Default                                  : Yes
    Forced                                   : No

    Audio #2
    ID                                       : 3
    Format                                   : AC-3
    Format/Info                              : Audio Coding 3
    Mode extension                           : CM (complete main)
    Codec ID                                 : A_AC3
    Duration                                 : 2h 8mn
    Bit rate mode                            : Constant
    Bit rate                                 : 640 Kbps
    Channel(s)                               : 6 channels
    Channel positions                        : Front: L C R, Side: L R, LFE
    Sampling rate                            : 48.0 KHz
    Bit depth                                : 16 bits
    Compression mode                         : Lossy
    Stream size                              : 588 MiB (7%)
    Title                                    : авторский одноголосый, Гаврилов
    Language                                 : Russian
    Default                                  : No
    Forced                                   : No

    Audio #3
    ID                                       : 4
    Format                                   : AC-3
    Format/Info                              : Audio Coding 3
    Mode extension                           : CM (complete main)
    Codec ID                                 : A_AC3
    Duration                                 : 2h 8mn
    Bit rate mode                            : Constant
    Bit rate                                 : 640 Kbps
    Channel(s)                               : 6 channels
    Channel positions                        : Front: L C R, Side: L R, LFE
    Sampling rate                            : 48.0 KHz
    Bit depth                                : 16 bits
    Compression mode                         : Lossy
    Stream size                              : 588 MiB (7%)
    Title                                    : авторский одноголосый, Сербин
    Language                                 : Russian
    Default                                  : No
    Forced                                   : No

    Audio #4
    ID                                       : 5
    Format                                   : AC-3
    Format/Info                              : Audio Coding 3
    Mode extension                           : CM (complete main)
    Codec ID                                 : A_AC3
    Duration                                 : 2h 8mn
    Bit rate mode                            : Constant
    Bit rate                                 : 640 Kbps
    Channel(s)                               : 6 channels
    Channel positions                        : Front: L C R, Side: L R, LFE
    Sampling rate                            : 48.0 KHz
    Bit depth                                : 16 bits
    Compression mode                         : Lossy
    Stream size                              : 588 MiB (7%)
    Title                                    : Двухголосый закадровый, BBC Saint-Petersburg
    Language                                 : Russian
    Default                                  : No
    Forced                                   : No

    Audio #5
    ID                                       : 6
    Format                                   : AC-3
    Format/Info                              : Audio Coding 3
    Mode extension                           : CM (complete main)
    Codec ID                                 : A_AC3
    Duration                                 : 2h 8mn
    Bit rate mode                            : Constant
    Bit rate                                 : 640 Kbps
    Channel(s)                               : 6 channels
    Channel positions                        : Front: L C R, Side: L R, LFE
    Sampling rate                            : 48.0 KHz
    Bit depth                                : 16 bits
    Compression mode                         : Lossy
    Stream size                              : 588 MiB (7%)
    Language                                 : English
    Default                                  : No
    Forced                                   : No

    Text #1
    ID                                       : 7
    Format                                   : UTF-8
    Codec ID                                 : S_TEXT/UTF8
    Codec ID/Info                            : UTF-8 Plain Text
    Title                                    : Forced
    Language                                 : Russian
    Default                                  : Yes
    Forced                                   : No

    Text #2
    ID                                       : 8
    Format                                   : UTF-8
    Codec ID                                 : S_TEXT/UTF8
    Codec ID/Info                            : UTF-8 Plain Text
    Title                                    : Full
    Language                                 : Russian
    Default                                  : No
    Forced                                   : No

    Text #3
    ID                                       : 9
    Format                                   : UTF-8
    Codec ID                                 : S_TEXT/UTF8
    Codec ID/Info                            : UTF-8 Plain Text
    Title                                    : Voronine
    Language                                 : Russian
    Default                                  : No
    Forced                                   : No

    Text #4
    ID                                       : 10
    Format                                   : UTF-8
    Codec ID                                 : S_TEXT/UTF8
    Codec ID/Info                            : UTF-8 Plain Text
    Title                                    : Voronine, Colored
    Language                                 : Russian
    Default                                  : No
    Forced                                   : No

    Text #5
    ID                                       : 11
    Format                                   : UTF-8
    Codec ID                                 : S_TEXT/UTF8
    Codec ID/Info                            : UTF-8 Plain Text
    Title                                    : Voronine, SDH
    Language                                 : Russian
    Default                                  : No
    Forced                                   : No

    Text #6
    ID                                       : 12
    Format                                   : UTF-8
    Codec ID                                 : S_TEXT/UTF8
    Codec ID/Info                            : UTF-8 Plain Text
    Title                                    : Full
    Language                                 : English
    Default                                  : No
    Forced                                   : No

    Text #7
    ID                                       : 13
    Format                                   : UTF-8
    Codec ID                                 : S_TEXT/UTF8
    Codec ID/Info                            : UTF-8 Plain Text
    Title                                    : SDH
    Language                                 : English
    Default                                  : No
    Forced                                   : No

    Menu
    00:00:00.000                             : en:00:00:00.000
    00:06:46.531                             : en:00:06:46.531
    00:11:30.230                             : en:00:11:30.230
    00:15:41.605                             : en:00:15:41.605
    00:19:08.894                             : en:00:19:08.894
    00:23:29.074                             : en:00:23:29.074
    00:27:49.875                             : en:00:27:49.875
    00:32:01.250                             : en:00:32:01.250
    00:37:08.434                             : en:00:37:08.434
    00:40:50.405                             : en:00:40:50.405
    00:44:37.215                             : en:00:44:37.215
    00:47:39.690                             : en:00:47:39.690
    00:50:52.172                             : en:00:50:52.172
    00:55:17.605                             : en:00:55:17.605
    00:59:04.456                             : en:00:59:04.456
    01:03:04.780                             : en:01:03:04.780
    01:06:08.047                             : en:01:06:08.047
    01:11:14.103                             : en:01:11:14.103
    01:14:39.349                             : en:01:14:39.349
    01:17:36.318                             : en:01:17:36.318
    01:23:35.091                             : en:01:23:35.091
    01:26:06.953                             : en:01:26:06.953
    01:30:57.158                             : en:01:30:57.158
    01:35:15.376                             : en:01:35:15.376
    01:39:45.979                             : en:01:39:45.979
    01:44:18.001                             : en:01:44:18.001
    01:48:21.953                             : en:01:48:21.953
    01:54:02.710                             : en:01:54:02.710
    01:56:07.501                             : en:01:56:07.501
    02:00:26.176                             : en:02:00:26.176



    x264

    x264 [info]: frame I:1955  Avg QP:14.06  size:139859
    x264 [info]: frame P:43731 Avg QP:16.32  size: 54287
    x264 [info]: frame B:139043 Avg QP:18.97  size: 20017


    Скриншоты
    [img]http://i47.fastpic.ru/big/2015/0420/d7/2c5f3ee5d3b472c10daaee4ae03e70d7.png[/img][img]http://i48.fastpic.ru/big/2015/0420/dc/dd3bb4c973aba23aa3f99d76d31ce8dc.png[/img][img]http://i47.fastpic.ru/big/2015/0420/ee/947ade5492ae7c6c5aae2998a328c5ee.png[/img][img]http://i57.fastpic.ru/big/2015/0420/98/033838577d3b78f71791b8f81b847b98.png[/img][img]http://i60.fastpic.ru/big/2015/0420/fd/12eb0220e3e4d868c4828229cf119bfd.png[/img]
    Еще похожие »

    Как скачать?
    1. Качаем UTorrent версии 2.0 и выше отсюда
    2. После установки, жмем на ссылку Скачать торрент.
    3. Открываем его через utorrent.
    4. Ждем пока подключатся участники.
    5. Качаем.


    Комментарии о Шерлок Холмс / Sherlock Holmes | BDRip 720p
    Добавлять комментарии могут только зарегистрированные пользователи

    Зарегистрироваться или Войти


    Ближайшее в кино
    • Профессионал дата выхода 27 сентября 2018Профессионал
      Дата выхода: 27 сентября 2018
    • 650699|Человек, который убил Дон Кихота|27 сентября 2018|200|300Человек, который убил Дон Кихота
      Дата выхода: 27 сентября 2018
    • 1045777|Непрощенный|27 сентября 2018|200|300Непрощенный
      Дата выхода: 27 сентября 2018
    • 939411|Мотылек|27 сентября 2018|200|300Мотылек
      Дата выхода: 27 сентября 2018
    • 652531|Тайна дома с часами|27 сентября 2018|200|300Тайна дома с часами
      Дата выхода: 27 сентября 2018
    • 970196|Поиск|27 сентября 2018|200|300Поиск
      Дата выхода: 27 сентября 2018
    • 429363|Игрушки для взрослых|27 сентября 2018|200|300Игрушки для взрослых
      Дата выхода: 27 сентября 2018
    • 1049653|Сердце мира|27 сентября 2018|200|300Сердце мира
      Дата выхода: 27 сентября 2018
    • 794309|Букшоп|27 сентября 2018|200|300Букшоп
      Дата выхода: 27 сентября 2018
    • 1015929|3 дня с Роми Шнайдер|27 сентября 2018|200|3003 дня с Роми Шнайдер
      Дата выхода: 27 сентября 2018
    • 947047|Похитители носков|27 сентября 2018|200|300Похитители носков
      Дата выхода: 27 сентября 2018
    • 1115748|Руби и Повелитель воды|27 сентября 2018|200|300Руби и Повелитель воды
      Дата выхода: 27 сентября 2018
    • 983306|Нуреев: Его сцена – весь мир|29 сентября 2018|200|300Нуреев: Его сцена – весь мир
      Дата выхода: 29 сентября 2018
    • 463634|Веном|4 октября 2018|200|300Веном
      Дата выхода: 4 октября 2018
    • 998805|На районе|4 октября 2018|200|300На районе
      Дата выхода: 4 октября 2018
    Вверх