• Игры для PS4
  • Игры для PS3
  • Игры для XBOX360
  • Игры для PC
  • Игры для PS2
  • Игры для PSP
  • Для телефонов
  • Музыка
  • Книги / Журналы
  • Обои
  • Опрос
    Откуда Вы о нас узнали?
      0
    • От знакомых2,1,false,300,full
    • Из социальных сетей2,2,false,300,full
    • Из поисковых систем2,3,false,300,full
    • Другое2,4,false,300,full
    Статистика
    Всего онлайн -
    Гостей -
    Пользователей -
    Короли трекера
    Благодарности () Закрыть
    Информация о фильме
    Название: Увлекшийся / Фермер
    Оригинальное название: Carried Away
    Год выхода: 1996
    Жанр: драма, мелодрама
    Режиссер: Бруно Баррето
    В ролях: Деннис Хоппер, Эми Ирвинг, Эми Локейн, Джули Харрис, Гэри Бьюзи, Хэл Холбрук, Кристофер Петтиет, Присцилла Пойнтер, Гэйл Кронау, Алисса Элбан, Джо Стивенс, Конни Купер, Элис Лестер

    О фильме: Действие картины разворачивается на фоне великолепного пейзажа Северной Америки. Влечение немолодого человека к 17-летней красавице переворачивает с ног на голову его спокойную и размеренную жизнь. Это, казалось бы, невинное увлечение молодой девушкой незаметно превращается в большую, страстную любовь...

    [img]http://i89.fastpic.ru/big/2017/0502/69/67d521d70873d2399dac9e7d05d0b369.png[/img]

    Страна: США
    Студия: New Line Cinema, Cinetel Films, Fine Line Features
    Продолжительность: 01:48:55
    Перевод: Профессиональный (двухголосый, закадровый)
    Субтитры: Нет

    Файл
    Кодек: XviD
    Качество: WEB-DLRip
    Видео: 688x384 (1.79:1), 23.976 fps, XviD build 73 ~817 kbps avg, 0.13 bit/pixel
    Звук: 48 kHz, MPEG Layer 3, 2 ch, ~128.00 kbps avg

    MediaInfo
    General
    Complete name               : Carried.Away.1996.WEB-DLRip.ot.Portablius.avi
    Format                      : AVI
    Format/Info                 : Audio Video Interleave
    File size                   : 744 MiB
    Duration                    : 1 h 48 min
    Overall bit rate            : 955 kb/s
    Writing application         : VirtualDubMod 1.5.10.3 | www.virtualdub-fr.org || (build 2550/release)
    Writing library             : VirtualDubMod build 2550/release

    Video
    ID                          : 0
    Format                      : MPEG-4 Visual
    Format profile              : Advanced Simple@L5
    Format settings, BVOP       : 1
    Format settings, QPel       : No
    Format settings, GMC        : No warppoints
    Format settings, Matrix     : Custom
    Codec ID                    : XVID
    Codec ID/Hint               : XviD
    Duration                    : 1 h 48 min
    Bit rate                    : 818 kb/s
    Width                       : 688 pixels
    Height                      : 384 pixels
    Display aspect ratio        : 16:9
    Frame rate                  : 23.976 (24000/1001) FPS
    Color space                 : YUV
    Chroma subsampling          : 4:2:0
    Bit depth                   : 8 bits
    Scan type                   : Progressive
    Compression mode            : Lossy
    Bits/(Pixel*Frame)          : 0.129
    Stream size                 : 637 MiB (86%)
    Writing library             : XviD 73

    Audio
    ID                          : 1
    Format                      : MPEG Audio
    Format version              : Version 1
    Format profile              : Layer 3
    Codec ID                    : 55
    Codec ID/Hint               : MP3
    Duration                    : 1 h 48 min
    Bit rate mode               : Constant
    Bit rate                    : 128 kb/s
    Channel(s)                  : 2 channels
    Sampling rate               : 48.0 kHz
    Compression mode            : Lossy
    Stream size                 : 99.7 MiB (13%)
    Alignment                   : Aligned on interleaves
    Interleave, duration        : 42  ms (1.00 video frame)
    Interleave, preload duratio : 504  ms
    Writing library             : LAME3.99r
    Encoding settings           : -m s -V 4 -q 2 -lowpass 17 -b 128

    Свернуть


    Похожие раздачи Искать похожие
    Инструкция по скачиванию
     1  Качаем uTorrent версии 2.0 и выше
     2  После установки, жмем выше под постером на ссылку Скачать [MediaGet] или Скачать .torrent
     3  Открываем скачанный файл через соответствующий клиент: MediaGet или uTorrent
     4  Ждем пока подключатся участники
     5  Качаем
    Комментарии о  Увлекшийся / Фермер / Carried Away | WEB-DLRip 
    Ближайшее в кино
    Вверх