• Игры для PS4
  • Игры для PS3
  • Игры для XBOX360
  • Игры для PC
  • Игры для PS2
  • Игры для PSP
  • Для телефонов
  • Музыка
  • Книги / Журналы
  • Обои
  • Опрос
    Удобен ли сайт в использовании?
      0
    • Очень удобен, все понятно1,1,false,300,full
    • Удобен1,2,false,300,full
    • Средне1,3,false,300,full
    • Неудобен, трудно ориентироваться1,4,false,300,full
    • Совсем неудобен1,5,false,300,full
    Статистика
    Всего онлайн -
    Гостей -
    Пользователей -
    Короли трекера
    
    Благодарности () Закрыть
    Быстрее загружает сайты Экономит интернет—трафик Меняет оформление страницы ВК Блокирует всю рекламу на сайтах Загружает торренты как µTorrent клиент Объеденяет все твои чаты из соц. сетей в один Проигрывает твою музыку не заходя во ВКонтакте
    Новый интернет-браузер
    Orbitum
    Скачать
    и многое другое... Подробности на сайте производителя
    Информация о фильме
    Название: Немезида
    Оригинальное название: Nemesis
    Год выхода: 1992
    Жанр:  Фантастика, боевик, триллер
    Режиссер: Альберт Пьюн
    В ролях: Оливье Грюнер, Тим Томерсон, Кэри-Хироюки Тагава, Мерл Кеннеди, Юдзи Окумото, Марджори Монахэн, Николас Гест, Винсент Клин, Том Мэтьюз, Марджин Холден

    О фильме :
    Кибернетика достигла такого могущества, что любая часть тела может быть заменена, даже мозг. Эта сверхтехнология порождает существа, которые являются скорее киборгами, чем людьми. Секретный агент Алекс после многочисленых ранений подвергся кибернетической хирургии. Он попытался отказаться вернуться на службу, но его обвинили в контрабанде и имплатировали в сердце бомбу, которая может быть взорвана в любой момент. Теперь у Алекса нет выбора, он должен отыскать похищенный компьютерный чип, за которым отчаянно охотятся террористы. Этот чип - ключ к плану киборгов захватить власть на Земле. Основная подозреваемая - Джаред, коллега и бывшая любовница Алекса.



    Страна: Дания, США
    Продолжительность: 01:35:41
    Перевод 1: Профессиональный (двухголосый закадровый) Twister
    Перевод 2: Авторский (одноголосый закадровый) Павел Санаев

    Файл
    Формат: MKV
    Качество: BDRip-AVC (BDRemux 1080p)
    Видео: MPEG-4 AVC, 752x424, ~ 935 Кбит/с
    Аудио 1: [img]http://i93.fastpic.ru/big/2017/0727/c0/4b72f0369a3393219ed5935e91fc15c0.gif[/img] AAC-HE, 2 ch, ~ 76 Кбит/с | DVO, Twister
    Аудио 2: [img]http://i93.fastpic.ru/big/2017/0727/c0/4b72f0369a3393219ed5935e91fc15c0.gif[/img] AAC-HE, 2 ch, ~ 76 Кбит/с | AVO, Павел Санаев
    Субтитры: Русские, английские

    MI
    Общее
    Уникальный идентификатор : 223834971856145704446347816278786595808 (0xA8650C284C045055908B497699645BE0)
    Полное имя : D:MOVIESNemesis.1992.ExKinoRay.mkv
    Формат : Matroska
    Версия формата : Version 4 / Version 2
    Размер файла : 745 Мбайт
    Продолжительность : 1 ч. 35 м.
    Общий поток : 1089 Кбит/сек
    Дата кодирования : UTC 2018-05-16 12:41:01
    Программа кодирования : mkvmerge v15.0.0 ("Duel with the Devil") 64-bit
    Библиотека кодирования : libebml v1.3.5 + libmatroska v1.4.5

    Видео
    Идентификатор : 1
    Формат : AVC
    Формат/Информация : Advanced Video Codec
    Профиль формата : High@L4.1
    Параметр CABAC формата : Да
    Параметр RefFrames формата : 10 кадров
    Идентификатор кодека : V_MPEG4/ISO/AVC
    Продолжительность : 1 ч. 35 м.
    Битрейт : 935 Кбит/сек
    Ширина : 752 пикселя
    Высота : 424 пикселя
    Соотношение сторон : 16:9
    Режим частоты кадров : Постоянный
    Частота кадров : 23,976 (24000/1001) кадра/сек
    Цветовое пространство : YUV
    Субдискретизация насыщенности : 4:2:0
    Битовая глубина : 8 бит
    Тип развёртки : Прогрессивная
    Бит/(Пиксели*Кадры) : 0.122
    Размер потока : 640 Мбайт (86%)
    Библиотека кодирования : x264 core 155 r2901 7d0ff22
    Настройки программы : cabac=1 / ref=10 / deblock=1:-3:-3 / analyse=0x3:0x133 / me=umh / subme=11 / psy=1 / psy_rd=1.00:0.12 / mixed_ref=1 / me_range=32 / chroma_me=1 / trellis=2 / 8x8dct=1 / cqm=0 / deadzone=21,11 / fast_pskip=0 / chroma_qp_offset=-3 / threads=6 / lookahead_threads=1 / sliced_threads=0 / nr=0 / decimate=0 / interlaced=0 / bluray_compat=0 / constrained_intra=0 / bframes=10 / b_pyramid=2 / b_adapt=2 / b_bias=0 / direct=3 / weightb=1 / open_gop=0 / weightp=2 / keyint=240 / keyint_min=23 / scenecut=40 / intra_refresh=0 / rc_lookahead=40 / rc=2pass / mbtree=1 / bitrate=935 / ratetol=1.0 / qcomp=0.60 / qpmin=0 / qpmax=69 / qpstep=4 / cplxblur=20.0 / qblur=0.5 / vbv_maxrate=50000 / vbv_bufsize=62500 / nal_hrd=none / filler=0 / ip_ratio=1.40 / aq=3:1.00
    Default : Да
    Forced : Нет

    Аудио #1
    Идентификатор : 2
    Формат : AAC
    Формат/Информация : Advanced Audio Codec
    Профиль формата : HE-AAC / LC
    Идентификатор кодека : A_AAC
    Продолжительность : 1 ч. 35 м.
    Битрейт : 76,0 Кбит/сек
    Каналы : 2 канала
    Расположение каналов : Front: L R
    Частота : 48,0 КГц / 24,0 КГц
    Частота кадров : 23,438 кадра/сек (1024 SPF)
    Метод сжатия : С потерями
    Задержка видео : 31 мс.
    Размер потока : 52,0 Мбайт (7%)
    Заголовок : Twister
    Язык : Russian
    Default : Да
    Forced : Нет

    Аудио #2
    Идентификатор : 3
    Формат : AAC
    Формат/Информация : Advanced Audio Codec
    Профиль формата : HE-AAC / LC
    Идентификатор кодека : A_AAC
    Продолжительность : 1 ч. 35 м.
    Битрейт : 76,0 Кбит/сек
    Каналы : 2 канала
    Расположение каналов : Front: L R
    Частота : 48,0 КГц / 24,0 КГц
    Частота кадров : 23,438 кадра/сек (1024 SPF)
    Метод сжатия : С потерями
    Задержка видео : 31 мс.
    Размер потока : 52,0 Мбайт (7%)
    Заголовок : Санаев
    Язык : Russian
    Default : Нет
    Forced : Нет

    Текст #1
    Идентификатор : 4
    Формат : UTF-8
    Идентификатор кодека : S_TEXT/UTF8
    Идентификатор кодека/Информация : UTF-8 Plain Text
    Продолжительность : 1 ч. 31 м.
    Битрейт : 68 бит/сек
    ElementCount : 683
    Размер потока : 46,4 Кбайт (0%)
    Заголовок : Full
    Язык : Russian
    Default : Нет
    Forced : Нет

    Текст #2
    Идентификатор : 5
    Формат : UTF-8
    Идентификатор кодека : S_TEXT/UTF8
    Идентификатор кодека/Информация : UTF-8 Plain Text
    Продолжительность : 1 ч. 31 м.
    Битрейт : 37 бит/сек
    ElementCount : 895
    Размер потока : 25,5 Кбайт (0%)
    Заголовок : Full
    Язык : English
    Default : Нет
    Forced : Нет

    Меню
    00:00:00.000 : en:00:00:00.000
    00:00:00.375 : en:00:00:00.375
    00:10:00.600 : en:00:10:00.600
    00:20:01.200 : en:00:20:01.200
    00:30:01.800 : en:00:30:01.800
    00:40:02.400 : en:00:40:02.400
    00:50:03.000 : en:00:50:03.000
    01:00:03.600 : en:01:00:03.600
    01:10:04.200 : en:01:10:04.200
    01:20:04.800 : en:01:20:04.800
    01:30:05.400 : en:01:30:05.400
    Свернуть


    Скриншоты
    [screen]http://i105.fastpic.ru/big/2018/0516/b9/b345376325b2dca4849bac70af518eb9.jpg[/screen][screen]http://i105.fastpic.ru/big/2018/0516/e3/a7e2661f5118722c4118a4f66c5e1ae3.jpg[/screen][screen]http://i105.fastpic.ru/big/2018/0516/7d/9ae21cf6e19e8866af80162f5c7cbb7d.jpg[/screen][screen]http://i105.fastpic.ru/big/2018/0516/d1/1354e9ebe711c1be29622395f58c17d1.jpg[/screen]

    [screen]http://i104.fastpic.ru/big/2018/0516/3e/f0fadcc0aa829278f982f780ee40e83e.jpg[/screen][screen]http://i105.fastpic.ru/big/2018/0516/72/951d45f4791191c0903e9d7aa89d5a72.jpg[/screen][screen]http://i105.fastpic.ru/big/2018/0516/46/774fe7ae4949ae5ef9bd2fd6c6ad8846.jpg[/screen][screen]http://i105.fastpic.ru/big/2018/0516/20/f10896399ca054373696556553f4ea20.jpg[/screen]Свернуть
    Похожие раздачи Искать похожие
    Инструкция по скачиванию
     1  Качаем uTorrent версии 2.0 и выше
     2  После установки, жмем выше под постером на ссылку Скачать [MediaGet] или Скачать .torrent
     3  Открываем скачанный файл через соответствующий клиент: MediaGet или uTorrent
     4  Ждем пока подключатся участники
     5  Качаем
    Комментарии о  Немезида / Nemesis | BDRip-AVC 
    Ближайшее в кино
    Вверх