• Игры для PS4
  • Игры для PS3
  • Игры для XBOX360
  • Игры для PC
  • Игры для PS2
  • Игры для PSP
  • Для телефонов
  • Музыка
  • Книги / Журналы
  • Обои
  • Опрос
    Откуда Вы о нас узнали?
      0
    • От знакомых2,1,false,300,full
    • Из социальных сетей2,2,false,300,full
    • Из поисковых систем2,3,false,300,full
    • Другое2,4,false,300,full
    Статистика
    Всего онлайн -
    Гостей -
    Пользователей -
    Короли трекера
    
    Благодарности () Закрыть
    Быстрее загружает сайты Экономит интернет—трафик Меняет оформление страницы ВК Блокирует всю рекламу на сайтах Загружает торренты как µTorrent клиент Объеденяет все твои чаты из соц. сетей в один Проигрывает твою музыку не заходя во ВКонтакте
    Новый интернет-браузер
    Оrbitum
    Скачать
    и многое другое... Подробности на сайте производителя
    Информация о фильме
    Название: Логово змея
    Оригинальное название: Serpent"s Lair
    Год выхода: 1995
    Жанр:  триллер
    Режиссер: Джеффри Рейнер / Jeffrey Reiner
    В ролях: Джефф Фэйи, Лиза Барбуша, Энтони Палермо, Кэтлин Нун, Джек Келер, Тейлор Николс, Патрик Бошо, Стюарт Блатт

    О фильме:
    Все неприятности бизнесмена Тома Беннета и его жены начались с переезда в новую квартиру, где покончил жизнь самоубийством ученый-археолог.

    Подозрительные соседи, странная черная кошка и эротические сны с черноволосой незнакомкой делают жизнь Тома неспокойной. Но когда появляется сестра умершего археолога — черноволосая Лилит, чтобы забрать вещи брата, — начинается настоящий кошмар.



    Страна: США
    Студия: Castel Films, Kushner-Locke Company
    Продолжительность: 01:34:01
    Перевод: Авторский (одноголосый закадровый) А. Гаврилов
    Субтитры: нет

    Файл
    Тип релиза: BDRip 1080p
    Контейнер: MKV
    Видео: 1920x1080 (16:9), 23.976 fps, AVC, ~11.5 Mbps, 0.231 bits/pixel
    Аудио 1: Russian, 48.0 KHz, AC3, 2 ch, 192 Kbps - Андрей Гаврилов
    Аудио 2: English, 48.0 KHz, DTS, 2 ch, 1510 Kbps

    M/I
    General
    Unique ID : 96359080649258298228710728581161154795 (0x487E15796554132608D05055A923F8EB)
    Complete name : C:Serpent"s Lair. BDRip 1080p.mkv
    Format : Matroska
    Format version : Version 4 / Version 2
    File size : 8.54 GiB
    Duration : 1 h 34 min
    Overall bit rate : 13.0 Mb/s
    Movie name :
    Encoded date : UTC 2018-04-19 12:50:14
    Writing application : mkvmerge v22.0.0 ("At The End Of The World") 64-bit
    Writing library : libebml v1.3.5 + libmatroska v1.4.8

    Video
    ID : 1
    Format : AVC
    Format/Info : Advanced Video Codec
    Format profile : High@L4.1
    Format settings : CABAC / 4 Ref Frames
    Format settings, CABAC : Yes
    Format settings, ReFrames : 4 frames
    Codec ID : V_MPEG4/ISO/AVC
    Duration : 1 h 34 min
    Bit rate : 11.5 Mb/s
    Width : 1 920 pixels
    Height : 1 080 pixels
    Display aspect ratio : 16:9
    Frame rate mode : Constant
    Frame rate : 23.976 (24000/1001) FPS
    Color space : YUV
    Chroma subsampling : 4:2:0
    Bit depth : 8 bits
    Scan type : Progressive
    Bits/(Pixel*Frame) : 0.231
    Stream size : 7.42 GiB (87%)
    Writing library : x264 core 148 r2795M aaa9aa8
    Encoding settings : cabac=1 / ref=4 / deblock=1:-2:-2 / analyse=0x3:0x113 / me=umh / subme=9 / psy=1 / psy_rd=1.00:0.15 / mixed_ref=1 / me_range=16 / chroma_me=1 / trellis=2 / 8x8dct=1 / cqm=0 / deadzone=21,11 / fast_pskip=1 / chroma_qp_offset=-3 / threads=24 / lookahead_threads=3 / sliced_threads=0 / nr=0 / decimate=1 / interlaced=0 / bluray_compat=0 / constrained_intra=0 / bframes=3 / b_pyramid=2 / b_adapt=2 / b_bias=0 / direct=3 / weightb=1 / open_gop=0 / weightp=2 / keyint=250 / keyint_min=25 / scenecut=40 / intra_refresh=0 / rc_lookahead=50 / rc=abr / mbtree=1 / bitrate=11500 / ratetol=1.0 / qcomp=0.60 / qpmin=0 / qpmax=69 / qpstep=4 / vbv_maxrate=31250 / vbv_bufsize=31250 / nal_hrd=none / filler=0 / ip_ratio=1.40 / aq=1:1.00
    Language : English
    Default : Yes
    Forced : No

    Audio #1
    ID : 2
    Format : AC-3
    Format/Info : Audio Coding 3
    Codec ID : A_AC3
    Duration : 1 h 34 min
    Bit rate mode : Constant
    Bit rate : 192 kb/s
    Channel(s) : 2 channels
    Channel positions : Front: L R
    Sampling rate : 48.0 kHz
    Frame rate : 31.250 FPS (1536 SPF)
    Bit depth : 16 bits
    Compression mode : Lossy
    Stream size : 129 MiB (1%)
    Title : Андрей Гаврилов
    Language : Russian
    Service kind : Complete Main
    Default : Yes
    Forced : No

    Audio #2
    ID : 3
    Format : DTS
    Format/Info : Digital Theater Systems
    Codec ID : A_DTS
    Duration : 1 h 34 min
    Bit rate mode : Constant
    Bit rate : 1 509 kb/s
    Channel(s) : 2 channels
    Channel positions : Front: L R
    Sampling rate : 48.0 kHz
    Frame rate : 93.750 FPS (512 SPF)
    Bit depth : 24 bits
    Compression mode : Lossy
    Stream size : 1 015 MiB (12%)
    Language : English
    Default : No
    Forced : No

    Menu
    00:00:00.000 : en:Chapter 01
    00:02:09.629 : en:Chapter 02
    00:10:09.066 : en:Chapter 03
    00:14:45.092 : en:Chapter 04
    00:19:18.282 : en:Chapter 05
    00:23:26.405 : en:Chapter 06
    00:28:35.380 : en:Chapter 07
    00:32:04.088 : en:Chapter 08
    00:37:02.720 : en:Chapter 09
    00:41:45.836 : en:Chapter 10
    00:46:51.767 : en:Chapter 11
    00:53:44.596 : en:Chapter 12
    00:59:39.284 : en:Chapter 13
    01:06:35.282 : en:Chapter 14
    01:10:52.748 : en:Chapter 15
    01:15:04.666 : en:Chapter 16
    01:21:47.527 : en:Chapter 17
    01:29:15.433 : en:Chapter 18
    01:30:56.367 : en:Chapter 19Свернуть


    Скриншоты
    [screen]http://i2.imageban.ru/out/2018/04/19/5fe0b452052c098806e825bf371958db.png[/screen][screen]http://i4.imageban.ru/out/2018/04/19/23aeb2060f97e0cdce0e98d0e87f3d6e.png[/screen][screen]http://i3.imageban.ru/out/2018/04/19/7f7c442ca2af70dcf4a75f2ac4de87f8.png[/screen][screen]http://i3.imageban.ru/out/2018/04/19/fbe4d22e3290f9624752ebad3931152e.png[/screen]Свернуть
    Похожие раздачи Искать похожие
    Инструкция по скачиванию
     1  Качаем uTorrent версии 2.0 и выше
     2  После установки, жмем выше под постером на ссылку Скачать [MediaGet] или Скачать .torrent
     3  Открываем скачанный файл через соответствующий клиент: MediaGet или uTorrent
     4  Ждем пока подключатся участники
     5  Качаем
    Комментарии о  Логово змея / Serpent's Lair | BDRip 1080p 
    Ближайшее в кино
    Вверх