• Игры для PS4
  • Игры для PS3
  • Игры для XBOX360
  • Игры для PC
  • Игры для PS2
  • Игры для PSP
  • Для телефонов
  • Музыка
  • Книги / Журналы
  • Обои
  • Опрос
    Откуда Вы о нас узнали?
      0
    • От знакомых2,1,false,300,full
    • Из социальных сетей2,2,false,300,full
    • Из поисковых систем2,3,false,300,full
    • Другое2,4,false,300,full
    Статистика
    Всего онлайн -
    Гостей -
    Пользователей -
    Короли трекера
    Благодарности () Закрыть
    Информация о фильме
    Название: Парень-каратист / Малыш-Каратист
    Оригинальное название: The Karate Kid
    Год выхода: 1984
    Жанр: Драма, спорт, семейный
    Режиссер: Джон Г. Эвилдсен
    В ролях: Ральф Маччио, Пэт Морита, Элизабет Шу, Мартин Коув, Рэнди Хеллер, Уильям Забка, Рон Томас, Роб Гэррисон, Чэд МакКуин, Тони О’Делл

    О фильме:
    В одной из школ Лос-Анджелеса появляется новичок — тинэйджер по имени Дэниел. Он прибыл с восточного побережья вместе со своей матерью. Нелегко завести друзей на новом месте, где ты не знаешь никого, а тем более в школе, где управляет жестокая банда каратистов. Несмотря на свой юный возраст, члены банды очень опасны. Они называют себя Кобрами и жестоко «жалят» каждого, кто им не угоден. В списки неугодных попадает и Дэниел после того, как он знакомится и заводит дружеские отношения с бывшей девушкой главаря Кобр. Кобры избивают новичка. Дэниел жаждет отмщения и в тоже время хочет произвести впечатление на свою новую девушку. Он обращается к мастеру восточных единоборств Мийаги с просьбой обучить его карате…

    [img]http://imdb.snick.ru/ratefor/02/tt0087538.png[/img][img]https://rating.kinopoisk.ru/22446.gif[/img]

    Страна: США
    Студия: Columbia Pictures Corporation, Delphi II,  Weintraub Productions
    Продолжительность: 02:06:55
    Перевод: Профессиональный (многоголосый, закадровый), авторский (одноголосый, закадровый)

    Файл
    Кодек: x264
    Качество: BDRemux 1080p
    Видео: MPEG-4 AVC / 1920x1080 / 23,976 fps / 16:9 / High Profile 4.1 / 26945 kbps
    Звук #1: Russian / Dolby Digital Audio / 2.0 / 48 kHz / 192 kbps / MVO (ОРТ)
    Звук #2: Russian / Dolby Digital Audio / 2.0 / 48 kHz / 192 kbps / MVO (Ren-TV)
    Звук #3: Russian / Dolby Digital Audio / 2.0 / 48 kHz / 192 kbps / AVO (Василий Горчаков)
    Звук #4: Russian / Dolby Digital Audio / 2.0 / 48 kHz / 192 kbps / AVO (Юрий Товбин)
    Звук #5: English / DTS-HD Master Audio / 5.1 / 48 kHz / 3795 kbps / 24-bit
    Субтитры: Русские, английские



    MI
    Формат                                   : Matroska
    Версия формата                           : Version 2
    Размер файла                             : 27,9 Гбайт
    Продолжительность                        : 2 ч. 6 м.
    Режим общего битрейта                    : Переменный
    Общий поток                              : 31,5 Мбит/сек
    Название фильма                          : The.Karate.Kid.1984.1080p.BluRay.REMUX.[zzZGVvv]
    Дата кодирования                         : UTC 2018-05-16 15:13:01
    Программа кодирования                    : mkvmerge v5.8.0 ("No Sleep / Pillow") built on Sep  2 2012 15:37:04
    Библиотека кодирования                   : libebml v1.2.3 + libmatroska v1.3.0
    Attachements                             : cover.jpg

    Видео
    Идентификатор                            : 1
    Формат                                   : AVC
    Формат/Информация                        : Advanced Video Codec
    Профиль формата                          : High@L4.1
    Параметр CABAC формата                   : Да
    Параметр ReFrames формата                : 2 кадра
    Режим смешивания                         : Header stripping
    Идентификатор кодека                     : V_MPEG4/ISO/AVC
    Продолжительность                        : 2 ч. 6 м.
    Вид битрейта                             : Переменный
    Ширина                                   : 1920 пикселей
    Высота                                   : 1080 пикселей
    Соотношение сторон                       : 16:9
    Режим частоты кадров                     : Постоянный
    Частота кадров                           : 23,976 кадра/сек
    Цветовое пространство                    : YUV
    Субдискретизация насыщенности            : 4:2:0
    Битовая глубина                          : 8 бит
    Тип развёртки                            : Прогрессивная
    Заголовок                                : The.Karate.Kid.1984.1080p.BluRay.REMUX
    Язык                                     : English
    Default                                  : Да
    Forced                                   : Нет

    Аудио #1
    Идентификатор                            : 2
    Формат                                   : AC-3
    Формат/Информация                        : Audio Coding 3
    Расширение режима                        : CM (complete main)
    Параметр Endianness формата              : Big
    Режим смешивания                         : Header stripping
    Идентификатор кодека                     : A_AC3
    Продолжительность                        : 2 ч. 6 м.
    Вид битрейта                             : Постоянный
    Битрейт                                  : 192 Кбит/сек
    Каналы                                   : 2 канала
    Расположение каналов                     : Front: L R
    Частота                                  : 48,0 КГц
    Метод сжатия                             : С потерями
    Размер потока                            : 174 Мбайт (1%)
    Заголовок                                : MVO (ОРТ)
    Язык                                     : Russian
    Default                                  : Да
    Forced                                   : Нет

    Аудио #2
    Идентификатор                            : 3
    Формат                                   : AC-3
    Формат/Информация                        : Audio Coding 3
    Расширение режима                        : CM (complete main)
    Параметр Endianness формата              : Big
    Режим смешивания                         : Header stripping
    Идентификатор кодека                     : A_AC3
    Продолжительность                        : 2 ч. 6 м.
    Вид битрейта                             : Постоянный
    Битрейт                                  : 192 Кбит/сек
    Каналы                                   : 2 канала
    Расположение каналов                     : Front: L R
    Частота                                  : 48,0 КГц
    Метод сжатия                             : С потерями
    Размер потока                            : 174 Мбайт (1%)
    Заголовок                                : MVO (Ren-TV)
    Язык                                     : Russian
    Default                                  : Нет
    Forced                                   : Нет

    Аудио #3
    Идентификатор                            : 4
    Формат                                   : AC-3
    Формат/Информация                        : Audio Coding 3
    Расширение режима                        : CM (complete main)
    Параметр Endianness формата              : Big
    Режим смешивания                         : Header stripping
    Идентификатор кодека                     : A_AC3
    Продолжительность                        : 2 ч. 6 м.
    Вид битрейта                             : Постоянный
    Битрейт                                  : 192 Кбит/сек
    Каналы                                   : 2 канала
    Расположение каналов                     : Front: L R
    Частота                                  : 48,0 КГц
    Метод сжатия                             : С потерями
    Размер потока                            : 174 Мбайт (1%)
    Заголовок                                : AVO (Василий Горчаков)
    Язык                                     : Russian
    Default                                  : Нет
    Forced                                   : Нет

    Аудио #4
    Идентификатор                            : 5
    Формат                                   : AC-3
    Формат/Информация                        : Audio Coding 3
    Расширение режима                        : CM (complete main)
    Параметр Endianness формата              : Big
    Режим смешивания                         : Header stripping
    Идентификатор кодека                     : A_AC3
    Продолжительность                        : 2 ч. 6 м.
    Вид битрейта                             : Постоянный
    Битрейт                                  : 192 Кбит/сек
    Каналы                                   : 2 канала
    Расположение каналов                     : Front: L R
    Частота                                  : 48,0 КГц
    Метод сжатия                             : С потерями
    Размер потока                            : 174 Мбайт (1%)
    Заголовок                                : AVO (Юрий Товбин)
    Язык                                     : Russian
    Default                                  : Нет
    Forced                                   : Нет

    Аудио #5
    Идентификатор                            : 6
    Формат                                   : DTS
    Формат/Информация                        : Digital Theater Systems
    Профиль формата                          : MA / Core
    Режим                                    : 16
    Параметр Endianness формата              : Big
    Режим смешивания                         : Header stripping
    Идентификатор кодека                     : A_DTS
    Продолжительность                        : 2 ч. 6 м.
    Вид битрейта                             : Переменный
    Битрейт                                  : Неизвестно / 1509 Кбит/сек
    Каналы                                   : 6 каналов
    Расположение каналов                     : Front: L C R, Side: L R, LFE
    Частота                                  : 48,0 КГц
    Битовая глубина                          : 24 бит
    Метод сжатия                             : Без потерь / Lossy
    Заголовок                                : Original
    Язык                                     : English
    Default                                  : Нет
    Forced                                   : Нет

    Текст #1
    Идентификатор                            : 7
    Формат                                   : UTF-8
    Идентификатор кодека                     : S_TEXT/UTF8
    Идентификатор кодека/Информация          : UTF-8 Plain Text
    Язык                                     : Russian
    Default                                  : Нет
    Forced                                   : Нет

    Текст #2
    Идентификатор                            : 8
    Формат                                   : UTF-8
    Идентификатор кодека                     : S_TEXT/UTF8
    Идентификатор кодека/Информация          : UTF-8 Plain Text
    Язык                                     : English
    Default                                  : Нет
    Forced                                   : Нет

    Меню
    00:00:00.000                             : en:Chapter 01
    00:08:57.537                             : en:Chapter 02
    00:16:02.628                             : en:Chapter 03
    00:21:52.602                             : en:Chapter 04
    00:27:59.969                             : en:Chapter 05
    00:35:31.963                             : en:Chapter 06
    00:39:38.793                             : en:Chapter 07
    00:52:43.952                             : en:Chapter 08
    01:00:06.185                             : en:Chapter 09
    01:09:57.484                             : en:Chapter 10
    01:18:04.346                             : en:Chapter 11
    01:26:52.790                             : en:Chapter 12
    01:33:12.461                             : en:Chapter 13
    01:41:02.139                             : en:Chapter 14
    01:48:30.378                             : en:Chapter 15
    01:57:58.154                             : en:Chapter 16

    Свернуть
    Похожие раздачи Искать похожие
    Инструкция по скачиванию
     1  Качаем uTorrent версии 2.0 и выше
     2  После установки, жмем выше под постером на ссылку Скачать [MediaGet] или Скачать .torrent
     3  Открываем скачанный файл через соответствующий клиент: MediaGet или uTorrent
     4  Ждем пока подключатся участники
     5  Качаем
    Комментарии о  Парень-каратист / The Karate Kid | BDRemux 1080p 
    Ближайшее в кино
    Вверх