• Игры для PS4
  • Игры для PS3
  • Игры для XBOX360
  • Игры для PC
  • Игры для PS2
  • Игры для PSP
  • Для телефонов
  • Музыка
  • Книги/Журналы
  • Обои
  •  
    Опрос
    Откуда Вы о нас узнали?
      0
    • От знакомых2,1,false,300,full
    • Из социальных сетей2,2,false,300,full
    • Из поисковых систем2,3,false,300,full
    • Другое2,4,false,300,full
    Статистика
    Загрузка...
    Веское основание для убийства [Серии 1-2 из 2] | WEBRip-AVC
    Статус  Проверено
    В закладки
    Модератор: Max

    Веское основание для убийства [Серии 1-2 из 2] | WEBRip-AVC [Сериалы 2009] скачать торрентом/torrent бесплатно

    Год выхода
    Категории
    Язык
    Закачал
    Max | 16 мая в 20ч 38м 05с
    Раздел
    Отзывов
    0
    Раздают: 3 Качают: 0 Скачали: 14 Размер: 2.22 GB
    Инфо о раздаче | Благодарности |
    0/5
    0
    0 5 0
    Поддержи нас — расскажи друзьям!
    Orbitum
    Новый интернет-браузер Быстрее загружает сайты Экономит интернет—трафик Меняет оформление страницы ВК Блокирует всю рекламу на сайтах Загружает торренты как

    µTorrent

    клиент
    Объеденяет все твои чаты из соц. сетей в один Проигрывает твою музыку не заходя во ВКонтакте
    Скачать и многое другое... Подробности на сайте производителя
    Информация о фильме
    Название: Веское основание для убийства
    Оригинальное название: Веское основание для убийства
    Год выхода: 2009
    Жанр:  Боевик, Детектив
    Режиссер: Марк Горобец
    В ролях: Владимир Горянский, Инна Мирошниченко, Алексей Смолка, Дмитрий Суржиков, Светлана Устинова, Ян Цапник

    О фильме:
    У Саши Марчук судьба сложилась на редкость несчастливо. Они с братом рано остались одни и попали в детдом. Цыганская семья выкупила Сашу оттуда, ей приходится расстаться с братом. После тяжелых испытаний, выпавших на ее долю, Саша попадает в спецшколу таинственной структуры, готовящую киллеров. Наставница Саши Елена Сергеевна обещает ей разыскать брата, но только с одним условием: Сашино задание — устранить некоего предпринимателя Константина Самулевича…



    Страна: Украина
    Продолжительность: 2 x ~01:20:00 серия
    Язык озвучки: Русский

    Файл
    Качество: WEBRip-AVC
    Видео: AVC/H.264, 1024x576 (16:9), ~1800 Kbps
    Аудио: AC3, 2 ch, 192 Kbps

    M/I
    Общее
    Уникальный идентификатор                 : 93220593147567534597803607616834685393 (0x4621A217EE197CCA14212EE1792EC9D1)
    Полное имя                               : D:Веское основание для убийства (2009).by.АлехаndrСерия 1.by.Алехаndr.mkv
    Формат                                   : Matroska
    Версия формата                           : Version 4 / Version 2
    Размер файла                             : 1,11 Гбайт
    Продолжительность                        : 1 ч. 19 м.
    Общий поток                              : 1991 Кбит/сек
    Дата кодирования                         : UTC 2018-05-16 05:34:49
    Программа кодирования                    : mkvmerge v23.0.0 ("The Bride Said No") 64-bit
    Библиотека кодирования                   : libebml v1.3.6 + libmatroska v1.4.9 / Lavf57.71.100

    Видео
    Идентификатор                            : 1
    Формат                                   : AVC
    Формат/Информация                        : Advanced Video Codec
    Профиль формата                          : Baseline@L3.1
    Настройки формата                        : 1 Ref Frames
    Параметр CABAC формата                   : Нет
    Параметр RefFrames формата               : 1 кадр
    Идентификатор кодека                     : V_MPEG4/ISO/AVC
    Продолжительность                        : 1 ч. 19 м.
    Битрейт                                  : 1798 Кбит/сек
    Ширина                                   : 1024 пикселя
    Высота                                   : 576 пикселей
    Соотношение сторон                       : 16:9
    Режим частоты кадров                     : Постоянный
    Частота кадров                           : 25,000 кадров/сек
    Цветовое пространство                    : YUV
    Субдискретизация насыщенности            : 4:2:0
    Битовая глубина                          : 8 бит
    Тип развёртки                            : Прогрессивная
    Бит/(Пиксели*Кадры)                      : 0.122
    Размер потока                            : 1,00 Гбайт (90%)
    Default                                  : Да
    Forced                                   : Нет

    Аудио
    Идентификатор                            : 2
    Формат                                   : AC-3
    Формат/Информация                        : Audio Coding 3
    Идентификатор кодека                     : A_AC3
    Продолжительность                        : 1 ч. 19 м.
    Вид битрейта                             : Постоянный
    Битрейт                                  : 192 Кбит/сек
    Каналы                                   : 2 канала
    Расположение каналов                     : Front: L R
    Частота                                  : 48,0 КГц
    Частота кадров                           : 31,250 кадров/сек (1536 SPF)
    Битовая глубина                          : 16 бит
    Метод сжатия                             : С потерями
    Размер потока                            : 110 Мбайт (10%)
    ServiceKind                       : Complete Main
    Default                                  : Да
    Forced                                   : Нет


    Скриншоты
    [img]http://lostpix.com/img/2018-05/16/qnw4kqxcb9p8lae4pragjrdh4.png[/img][img]http://lostpix.com/img/2018-05/16/scdim2z1ota5hc6fr4qs8j8pj.png[/img][img]http://lostpix.com/img/2018-05/16/ez1i8u10x0mpzc4jcxqetvwnc.png[/img][img]http://lostpix.com/img/2018-05/16/eklc1vgpmpm7fmufy0613e3qu.png[/img]
    Еще похожие »

    Как скачать?
    1. Качаем UTorrent версии 2.0 и выше отсюда
    2. После установки, жмем на ссылку Скачать торрент.
    3. Открываем его через utorrent.
    4. Ждем пока подключатся участники.
    5. Качаем.


    Комментарии о Веское основание для убийства [Серии 1-2 из 2] | WEBRip-AVC
    Добавлять комментарии могут только зарегистрированные пользователи

    Зарегистрироваться или Войти


    Ближайшее в кино
    • Профессионал дата выхода 27 сентября 2018Профессионал
      Дата выхода: 27 сентября 2018
    • 650699|Человек, который убил Дон Кихота|27 сентября 2018|200|300Человек, который убил Дон Кихота
      Дата выхода: 27 сентября 2018
    • 1045777|Непрощенный|27 сентября 2018|200|300Непрощенный
      Дата выхода: 27 сентября 2018
    • 939411|Мотылек|27 сентября 2018|200|300Мотылек
      Дата выхода: 27 сентября 2018
    • 652531|Тайна дома с часами|27 сентября 2018|200|300Тайна дома с часами
      Дата выхода: 27 сентября 2018
    • 970196|Поиск|27 сентября 2018|200|300Поиск
      Дата выхода: 27 сентября 2018
    • 429363|Игрушки для взрослых|27 сентября 2018|200|300Игрушки для взрослых
      Дата выхода: 27 сентября 2018
    • 1049653|Сердце мира|27 сентября 2018|200|300Сердце мира
      Дата выхода: 27 сентября 2018
    • 794309|Букшоп|27 сентября 2018|200|300Букшоп
      Дата выхода: 27 сентября 2018
    • 1015929|3 дня с Роми Шнайдер|27 сентября 2018|200|3003 дня с Роми Шнайдер
      Дата выхода: 27 сентября 2018
    • 947047|Похитители носков|27 сентября 2018|200|300Похитители носков
      Дата выхода: 27 сентября 2018
    • 1115748|Руби и Повелитель воды|27 сентября 2018|200|300Руби и Повелитель воды
      Дата выхода: 27 сентября 2018
    • 983306|Нуреев: Его сцена – весь мир|29 сентября 2018|200|300Нуреев: Его сцена – весь мир
      Дата выхода: 29 сентября 2018
    • 463634|Веном|4 октября 2018|200|300Веном
      Дата выхода: 4 октября 2018
    • 998805|На районе|4 октября 2018|200|300На районе
      Дата выхода: 4 октября 2018
    Вверх