• Игры для PS4
  • Игры для PS3
  • Игры для XBOX360
  • Игры для PC
  • Игры для PS2
  • Игры для PSP
  • Для телефонов
  • Музыка
  • Книги / Журналы
  • Обои
  • Опрос
    Откуда Вы о нас узнали?
      0
    • От знакомых2,1,false,300,full
    • Из социальных сетей2,2,false,300,full
    • Из поисковых систем2,3,false,300,full
    • Другое2,4,false,300,full
    Статистика
    Всего онлайн -
    Гостей -
    Пользователей -
    Короли трекера
    Благодарности () Закрыть
    Информация о фильме
    Название: Я сражаюсь с великанами
    Оригинальное название: I Kill Giants
    Год выхода: 2017
    Жанр: Драма, фэнтези, триллер
    Режиссер: Андерс Вальтер Хансен
    В ролях: Мэдисон Вульф, Зои Салдана, Имоджен Путс, Сидни Вэйд, Рори Джексон, Аллана О`Коннор, Дженнифер Или, Арт Паркинсон, Дон Вичерли, Эйдин Уайлд, Ноэль Кларк, Соня Келли, Сиара О`Каллаган, Аманда Стюарт, Майя Питерс

    О фильме:
    Барбара Торсон — особенная, ее уникальный талант — это возможность видеть мир великанов. И этот мир угрожает людям. Барбаре никто не верит, но она единственная, кто может спасти человечество от исчезновения. Она объявляет великанам войну и готовится к главному сражению в своей жизни.



    Страна: Бельгия, Великобритания, США
    Студия: 1492 Pictures, Adonis Production
    Продолжительность: 01:46:23
    Перевод: Дублированный | iTunes

    Файл
    Кодек: x.264
    Качество: BDRip 1080p
    Видео: MPEG-4 AVC, 1920x808, ~8787 Kбит/с, 23.976 кадр/с
    Звук:
    Аудио #1: Русский ( АС3, 6ch, 384 Кбит/с, 48.0 KHz) Профессиональный (дублированный) iTunes
    Аудио #2: Английский ( DTS, 6ch, 1510 Кбит/с, 48.0 KHz)
    Субтитры: pусские, английские
    Трейлер
    MediaInfo
    Источник: I.Kill.Giants.2017.1080p.BluRay.x264-ROVERS
    General
    Unique ID                      : 198117837159484963431272869149067331617 (0x950C1B85CAFFC2AF856A4CC49D8E4821)
    Complete name                  : I.Kill.Giants.2017.BDRip.1080p.mkv
    Format                         : Matroska
    Format version                 : Version 4 / Version 2
    File size                      : 7.93 GiB
    Duration                       : 1 h 46 min
    Overall bit rate               : 10.7 Mb/s
    Encoded date                   : UTC 2018-05-16 05:29:36
    Writing application            : mkvmerge v7.3.0 ("Nouages") 64bit built on Oct 22 2014 18:53:34
    Writing library                : libebml v1.3.0 + libmatroska v1.4.1

    Video
    ID                             : 1
    Format                         : AVC
    Format/Info                    : Advanced Video Codec
    Format profile                 : High@L4.1
    Format settings                : CABAC / 5 Ref Frames
    Format settings, CABAC         : Yes
    Format settings, ReFrames      : 5 frames
    Codec ID                       : V_MPEG4/ISO/AVC
    Duration                       : 1 h 46 min
    Bit rate                       : 8 787 kb/s
    Width                          : 1 920 pixels
    Height                         : 808 pixels
    Display aspect ratio           : 2.40:1
    Frame rate mode                : Constant
    Frame rate                     : 23.976 FPS
    Color space                    : YUV
    Chroma subsampling             : 4:2:0
    Bit depth                      : 8 bits
    Scan type                      : Progressive
    Bits/(Pixel*Frame)             : 0.236
    Stream size                    : 6.52 GiB (82%)
    Writing library                : x264 core 155 r2901 7d0ff22
    Encoding settings              : cabac=1 / ref=5 / deblock=1:0:0 / analyse=0x3:0x133 / me=umh / subme=7 / psy=1 / psy_rd=1.00:0.00 / mixed_ref=1 / me_range=16 / chroma_me=1 / trellis=1 / 8x8dct=1 / cqm=0 / deadzone=21,11 / fast_pskip=0 / chroma_qp_offset=-2 / threads=25 / lookahead_threads=4 / sliced_threads=0 / nr=0 / decimate=1 / interlaced=0 / bluray_compat=0 / constrained_intra=0 / bframes=3 / b_pyramid=2 / b_adapt=1 / b_bias=0 / direct=1 / weightb=1 / open_gop=0 / weightp=2 / keyint=250 / keyint_min=23 / scenecut=40 / intra_refresh=0 / rc_lookahead=40 / rc=2pass / mbtree=1 / bitrate=8787 / ratetol=1.0 / qcomp=0.60 / qpmin=0 / qpmax=69 / qpstep=4 / cplxblur=20.0 / qblur=0.5 / ip_ratio=1.40 / aq=1:1.00
    Language                       : English
    Default                        : Yes
    Forced                         : No

    Audio #1
    ID                             : 2
    Format                         : AC-3
    Format/Info                    : Audio Coding 3
    Codec ID                       : A_AC3
    Duration                       : 1 h 46 min
    Bit rate mode                  : Constant
    Bit rate                       : 384 kb/s
    Channel(s)                     : 6 channels
    Channel positions              : Front: L C R, Side: L R, LFE
    Sampling rate                  : 48.0 kHz
    Frame rate                     : 31.250 FPS (1536 SPF)
    Bit depth                      : 16 bits
    Compression mode               : Lossy
    Stream size                    : 292 MiB (4%)
    Language                       : Russian
    Service kind                   : Complete Main
    Default                        : Yes
    Forced                         : Yes

    Audio #2
    ID                             : 3
    Format                         : DTS
    Format/Info                    : Digital Theater Systems
    Codec ID                       : A_DTS
    Duration                       : 1 h 46 min
    Bit rate mode                  : Constant
    Bit rate                       : 1 509 kb/s
    Channel(s)                     : 6 channels
    Channel positions              : Front: L C R, Side: L R, LFE
    Sampling rate                  : 48.0 kHz
    Frame rate                     : 93.750 FPS (512 SPF)
    Bit depth                      : 24 bits
    Compression mode               : Lossy
    Stream size                    : 1.12 GiB (14%)
    Language                       : English
    Default                        : No
    Forced                         : No

    Text #1
    ID                             : 4
    Format                         : UTF-8
    Codec ID                       : S_TEXT/UTF8
    Codec ID/Info                  : UTF-8 Plain Text
    Duration                       : 1 h 32 min
    Bit rate                       : 65 b/s
    Count of elements              : 895
    Stream size                    : 44.2 KiB (0%)
    Language                       : Russian
    Default                        : No
    Forced                         : No

    Text #2
    ID                             : 5
    Format                         : UTF-8
    Codec ID                       : S_TEXT/UTF8
    Codec ID/Info                  : UTF-8 Plain Text
    Duration                       : 1 h 34 min
    Bit rate                       : 65 b/s
    Count of elements              : 905
    Stream size                    : 45.5 KiB (0%)
    Language                       : Russian
    Default                        : No
    Forced                         : No

    Text #3
    ID                             : 6
    Format                         : UTF-8
    Codec ID                       : S_TEXT/UTF8
    Codec ID/Info                  : UTF-8 Plain Text
    Duration                       : 1 h 36 min
    Bit rate                       : 39 b/s
    Count of elements              : 1055
    Stream size                    : 27.9 KiB (0%)
    Language                       : English
    Default                        : No
    Forced                         : No

    Menu
    00:00:00.000                   : en:00:00:00.000
    00:08:40.353                   : en:00:08:40.353
    00:16:09.802                   : en:00:16:09.802
    00:20:35.609                   : en:00:20:35.609
    00:32:25.318                   : en:00:32:25.318
    00:51:53.819                   : en:00:51:53.819
    01:04:16.144                   : en:01:04:16.144
    01:16:04.977                   : en:01:16:04.977
    01:23:37.012                   : en:01:23:37.012
    01:37:49.906                   : en:01:37:49.906Свернуть


    Похожие раздачи Искать похожие
    Инструкция по скачиванию
     1  Качаем uTorrent версии 2.0 и выше
     2  После установки, жмем выше под постером на ссылку Скачать [MediaGet] или Скачать .torrent
     3  Открываем скачанный файл через соответствующий клиент: MediaGet или uTorrent
     4  Ждем пока подключатся участники
     5  Качаем
    Комментарии о  Я сражаюсь с великанами / I Kill Giants | BDRip 1080p 
    Ближайшее в кино
    Вверх