• Игры для PS3
  • Игры для XBOX360
  • Игры для PC
  • Игры для PS2
  • Игры для PSP
  • Для телефонов
  • Музыка
  • Книги/Журналы
  • Обои
  •  
    Опрос
    Откуда Вы о нас узнали?
      0
    • От знакомых2,1,false,300,full
    • Из социальных сетей2,2,false,300,full
    • Из поисковых систем2,3,false,300,full
    • Другое2,4,false,300,full
    Статистика
    Загрузка...
    Движение вверх | WEB-DL 1080p
    Статус  Проверено
    В закладки
    Модератор: Max

    Движение вверх | WEB-DL 1080p [Фильмы 2017] скачать торрентом/torrent бесплатно

    Год выхода
    Категории
    Язык
    Закачал
    Max | 17 мая в 07ч 49м 40с
    Раздел
    Отзывов
    0
    Раздают: 503 Качают: 36 Скачали: 6168 Размер: 4.8 GB
    Инфо о раздаче | Благодарности |
    0/5
    0
    0 5 0
    Поддержи нас — расскажи друзьям!
    Orbitum
    Новый интернет-браузер Быстрее загружает сайты Экономит интернет—трафик Меняет оформление страницы ВК Блокирует всю рекламу на сайтах Загружает торренты как

    µTorrent

    клиент
    Объеденяет все твои чаты из соц. сетей в один Проигрывает твою музыку не заходя во ВКонтакте
    Скачать и многое другое... Подробности на сайте производителя
    Информация о фильме
    Название: Движение вверх
    Год выпуска: 2017
    Жанр:  Спорт, драма
    Режиссёр: Антон Мегердичев
    В ролях: Владимир Машков, Андрей Смоляков, Иван Колесников, Кирилл Зайцев, Джон Сэвэдж, Марат Башаров, Александра Ревенко, Виктория Толстоганова, Сергей Гармаш, Джеймс Тратас

    Описание:
    Есть победы, которые меняют ход истории. Победы духа, победы страны, победы всего мира. Таким триумфом стали легендарные «три секунды» — выигрыш сборной СССР по баскетболу на роковой мюнхенской Олимпиаде 1972 г. Впервые за 36 лет была повержена «непобедимая» команда США. Никто даже помыслить не мог о том, что это возможно — обыграть великолепных непогрешимых американцев на Олимпийских играх! Никто, кроме советских баскетболистов (русских и грузин, украинцев и казахов, белорусов и литовцев).
    Когда проигрыш означал поражение страны, когда нужно было выходить и бороться в раскаленной обстановке из-за произошедшего теракта, великий тренер сборной СССР был готов на все, лишь бы помочь своим подопечным разбить американский миф о непотопляемой команде мечты. Ведь он знал, что создал самую сильную сборную на планете, и в начале заставил поверить в это своих игроков, а затем весь мир.



    Страна: Россия
    Студия: Студия Тритэ
    Продолжительность: 02:13:50
    Язык: Русский

    Файл
    Формат: MKV
    Качество: WEB-DL 1080p
    Видео: 1920x808 (2.40:1), 25 fps, MPEG-4 AVC ~ 4957 kbps avg, 0.128 bit/pixel
    Звук: AC3, 48 kHz, 6 ch, ~384.00 kbps avg | русский | iTunes

    Субтитры: Русские, на иностранную речь (хардсаб)
    Семпл

    Инфо-файл
    Общее
    Уникальный идентификатор                 : 242241847549342692614117702835283325632 (0xB63E15323E326F33988D1B82867672C0)
    Полное имя                               : DVIZHENIE_VVERH_WEB_DL_1080p.mkv
    Формат                                   : Matroska
    Версия формата                           : Version 2
    Размер файла                             : 4,80 Гбайт
    Продолжительность                        : 2 ч. 8 м.
    Общий поток                              : 5343 Кбит/сек
    Дата кодирования                         : UTC 2018-05-16 18:19:02
    Программа кодирования                    : mkvmerge v8.3.0 ("Over the Horizon") 64bit
    Библиотека кодирования                   : libebml v1.3.1 + libmatroska v1.4.2

    Видео
    Идентификатор                            : 1
    Формат                                   : AVC
    Формат/Информация                        : Advanced Video Codec
    Профиль формата                          : High@L4
    Настройки формата                        : CABAC / 5 Ref Frames
    Параметр CABAC формата                   : Да
    Параметр ReFrames формата                : 5 кадров
    Идентификатор кодека                     : V_MPEG4/ISO/AVC
    Продолжительность                        : 2 ч. 8 м.
    Битрейт                                  : 4957 Кбит/сек
    Ширина                                   : 1920 пикселей
    Высота                                   : 808 пикселей
    Соотношение сторон                       : 2,40:1
    Режим частоты кадров                     : Постоянный
    Частота кадров                           : 25,000 кадров/сек
    Цветовое пространство                    : YUV
    Субдискретизация насыщенности            : 4:2:0
    Битовая глубина                          : 8 бит
    Тип развёртки                            : Прогрессивная
    Бит/(Пиксели*Кадры)                      : 0.128
    Размер потока                            : 4,45 Гбайт (93%)
    Язык                                     : English
    Default                                  : Да
    Forced                                   : Нет
    Цветовой диапазон                        : Limited
    Основные цвета                           : BT.709
    Характеристики трансфера                 : BT.709
    Коэффициенты матрицы                     : BT.709

    Аудио
    Идентификатор                            : 2
    Формат                                   : AC-3
    Формат/Информация                        : Audio Coding 3
    Идентификатор кодека                     : A_AC3
    Продолжительность                        : 2 ч. 8 м.
    Вид битрейта                             : Постоянный
    Битрейт                                  : 384 Кбит/сек
    Каналы                                   : 6 каналов
    Расположение каналов                     : Front: L C R, Side: L R, LFE
    Частота                                  : 48,0 КГц
    Частота кадров                           : 31,250 кадров/сек (1536 SPF)
    Битовая глубина                          : 16 бит
    Метод сжатия                             : С потерями
    Размер потока                            : 353 Мбайт (7%)
    Язык                                     : Russian
    Default                                  : Да
    Forced                                   : Нет


    Еще похожие »

    Как скачать?
    1. Качаем UTorrent версии 2.0 и выше отсюда
    2. После установки, жмем на ссылку Скачать торрент.
    3. Открываем его через utorrent.
    4. Ждем пока подключатся участники.
    5. Качаем.


    Комментарии о Движение вверх | WEB-DL 1080p
    Добавлять комментарии могут только зарегистрированные пользователи

    Зарегистрироваться или Войти


    Ближайшее в кино
    • Хан Соло: Звёздные Войны. Истории дата выхода 24 мая 2018Хан Соло: Звёздные Войны. Истории
      Дата выхода: 24 мая 2018
    • 719155|Секса не будет!!!|24 мая 2018|200|300Секса не будет!!!
      Дата выхода: 24 мая 2018
    • 912012|Распрекрасный принц|24 мая 2018|200|300Распрекрасный принц
      Дата выхода: 24 мая 2018
    • 1006294|Круги дьявола|24 мая 2018|200|300Круги дьявола
      Дата выхода: 24 мая 2018
    • 842709|Садко|24 мая 2018|200|300Садко
      Дата выхода: 24 мая 2018
    • 1044310|Гупёшка|24 мая 2018|200|300Гупёшка
      Дата выхода: 24 мая 2018
    • 893681|Черновик|25 мая 2018|200|300Черновик
      Дата выхода: 25 мая 2018
    • 1138771|МУЛЬТ в кино. Выпуск 76. Лето, привет!|26 мая 2018|200|300МУЛЬТ в кино. Выпуск 76. Лето, привет!
      Дата выхода: 26 мая 2018
    • 959365|Невидимый гость|31 мая 2018|200|300Невидимый гость
      Дата выхода: 31 мая 2018
    • 762500|Красный воробей|31 мая 2018|200|300Красный воробей
      Дата выхода: 31 мая 2018
    • 843121|Как разговаривать с девушками на вечеринках|31 мая 2018|200|300Как разговаривать с девушками на вечеринках
      Дата выхода: 31 мая 2018
    • 965611|Истории призраков|31 мая 2018|200|300Истории призраков
      Дата выхода: 31 мая 2018
    • 1048530|Моя жизнь|31 мая 2018|200|300Моя жизнь
      Дата выхода: 31 мая 2018
    • 1030828|Псы под прикрытием|31 мая 2018|200|300Псы под прикрытием
      Дата выхода: 31 мая 2018
    • 927822|Два хвоста|31 мая 2018|200|300Два хвоста
      Дата выхода: 31 мая 2018
    Вверх