• Игры для PS4
  • Игры для PS3
  • Игры для XBOX360
  • Игры для PC
  • Игры для PS2
  • Игры для PSP
  • Для телефонов
  • Музыка
  • Книги / Журналы
  • Обои
  • Опрос
    Откуда Вы о нас узнали?
      0
    • От знакомых2,1,false,300,full
    • Из социальных сетей2,2,false,300,full
    • Из поисковых систем2,3,false,300,full
    • Другое2,4,false,300,full
    Статистика
    Всего онлайн -
    Гостей -
    Пользователей -
    Короли трекера
    
    Благодарности () Закрыть
    Быстрее загружает сайты Экономит интернет—трафик Меняет оформление страницы ВК Блокирует всю рекламу на сайтах Загружает торренты как µTorrent клиент Объеденяет все твои чаты из соц. сетей в один Проигрывает твою музыку не заходя во ВКонтакте
    Новый интернет-браузер
    Оrbitum
    Скачать
    и многое другое... Подробности на сайте производителя
    Информация о фильме
    Год выхода: 2017
    Наименование: 120 ударов в минуту
    Оригинальное наименование: 120 battements par minute
    Произведено: Франция
    Жанр:  драма
    Режиссер постановщик: Робен Кампийо
    В главных ролях: Науэль Перес Бискаярт, Арно Валуа, Адель Энель, Антуан Райнарц, Алоиз Саваж, Симо Гела

    О фильме: Действие разворачивается в начале 90-х, о СПИДе известно уже более десяти лет. Активисты Парижа всё чаще проводят акции против общего безразличия к проблеме. Натан примыкает к группе, которая занимается распространением информации о болезни. Его потрясает радикальный настрой одного из лидеров сообщества - Шона, который вкладывает в эту борьбу все свои силы и злость.



    Файл
    Качество:  HDRip 1080p
    Видео данные: MKV, 1920x800 (2.40:1), 23.976 fps, 6194 Кбит/с
    Аудио данные: AAC, 2 ch, 192 Кбит/с
    Перевод: Любительский многоголосый (GreenРай Studio)
    Продолжительность: 02:20:31

    Медиаинфо

    General
    Unique ID                                : 41964628403257429702169056429742196936 (0x1F9217EBFDC6AA13F96A5975491F88C8)
    Complete name                            : D:ГРИНРАЙ120.B.P.M.2017.P.BDRip.1080p.mkv
    Format                                   : Matroska
    Format version                           : Version 4 / Version 2
    File size                                : 6.27 GiB
    Duration                                 : 2 h 20 min
    Overall bit rate                         : 6 386 kb/s
    Encoded date                             : UTC 2018-05-16 13:57:34
    Writing application                      : mkvmerge v21.0.0 ("Tardigrades Will Inherit The Earth") 64-bit
    Writing library                          : libebml v1.3.5 + libmatroska v1.4.8

    Video
    ID                                       : 1
    Format                                   : AVC
    Format/Info                              : Advanced Video Codec
    Format profile                           : High@L4.1
    Format settings                          : CABAC / 1 Ref Frames
    Format settings, CABAC                   : Yes
    Format settings, RefFrames               : 1 frame
    Format settings, GOP                     : M=1, N=30
    Codec ID                                 : V_MPEG4/ISO/AVC
    Duration                                 : 2 h 20 min
    Bit rate                                 : 6 194 kb/s
    Width                                    : 1 920 pixels
    Height                                   : 800 pixels
    Display aspect ratio                     : 2.40:1
    Frame rate mode                          : Constant
    Frame rate                               : 23.976 (24000/1001) FPS
    Color space                              : YUV
    Chroma subsampling                       : 4:2:0
    Bit depth                                : 8 bits
    Scan type                                : Progressive
    Bits/(Pixel*Frame)                       : 0.168
    Stream size                              : 6.08 GiB (97%)
    Language                                 : English
    Default                                  : Yes
    Forced                                   : No

    Audio
    ID                                       : 2
    Format                                   : AAC
    Format/Info                              : Advanced Audio Codec
    Format profile                           : LC
    Codec ID                                 : A_AAC-2
    Duration                                 : 2 h 20 min
    Bit rate                                 : 192 kb/s
    Channel(s)                               : 2 channels
    Channel positions                        : Front: L R
    Sampling rate                            : 48.0 kHz
    Frame rate                               : 46.875 FPS (1024 SPF)
    Compression mode                         : Lossy
    Stream size                              : 190 MiB (3%)
    Language                                 : English
    Default                                  : Yes
    Forced                                   : No
    Свернуть


    Внимание, имеется  видео и аудио реклама от спонсора показа

    Похожие раздачи Искать похожие
    Инструкция по скачиванию
     1  Качаем uTorrent версии 2.0 и выше
     2  После установки, жмем выше под постером на ссылку Скачать [MediaGet] или Скачать .torrent
     3  Открываем скачанный файл через соответствующий клиент: MediaGet или uTorrent
     4  Ждем пока подключатся участники
     5  Качаем
    Комментарии о  120 ударов в минуту / 120 battements par minute | HDRip 1080p 
    Ближайшее в кино
    Вверх