• Игры для PS4
  • Игры для PS3
  • Игры для XBOX360
  • Игры для PC
  • Игры для PS2
  • Игры для PSP
  • Для телефонов
  • Музыка
  • Книги / Журналы
  • Обои
  • Опрос
    Удобен ли сайт в использовании?
      0
    • Очень удобен, все понятно1,1,false,300,full
    • Удобен1,2,false,300,full
    • Средне1,3,false,300,full
    • Неудобен, трудно ориентироваться1,4,false,300,full
    • Совсем неудобен1,5,false,300,full
    Статистика
    Всего онлайн -
    Гостей -
    Пользователей -
    Короли трекера
    
    Благодарности () Закрыть
    Быстрее загружает сайты Экономит интернет—трафик Меняет оформление страницы ВК Блокирует всю рекламу на сайтах Загружает торренты как µTorrent клиент Объеденяет все твои чаты из соц. сетей в один Проигрывает твою музыку не заходя во ВКонтакте
    Новый интернет-браузер
    Оrbitum
    Скачать
    и многое другое... Подробности на сайте производителя
    Информация о фильме
    Год выхода: 2017
    Наименование: Третье убийство
    Оригинальное наименование: Sandome no satsujin
    Произведено: Япония
    Жанр:  драма, детектив, криминал
    Режиссер постановщик: Хирокадзу Корээда
    В главных ролях: Масахару Фукуяма, Кодзи Якусё, Синносукэ Мицусима, Микако Итикава, Идзуми Мацуока, Исао Хасидзумэ, Судзу Хиросэ, Хадзимэ Иноэ, Адзю Макита, Итиро Огура

    О фильме: Совершено дерзкое убийство. Злодей схвачен и предстает перед судом. 30 лет назад этот человек по имени Мисуми уже совершал аналогичное преступление, и теперь ему грозит смертная казнь. Защищать обвиняемого берутся адвокаты во главе с молодым юристом Сигэмори. Несмотря на то, что его клиент признал свою вину, Сигэмори пытается найти смягчающие обстоятельства. Чем глубже он проникает в суть дела, тем более противоречивым оно становится. Показания жены и дочери убитого полны недомолвок, тогда как общение с подзащитным заставляет Сигэмори испытывать к нему странную, почти мистическую симпатию. Постепенно он все больше проникается мыслью, что Мисуми никакой не убийца.



    Файл
    Качество:  HDRip 1080p
    Видео данные: MKV, 1920x810 (2.40:1), 23.976 fps, 8312 Кбит/с
    Аудио данные: AAC, 2 ch, 192 Кбит/с
    Перевод: Любительский многоголосый (GreenРай Studio)
    Продолжительность: 02:05:14

    Медиаинфо
    General
    Unique ID                                : 220573302556463064724684126642391386959 (0xA5F0DF71F4DB6C4F5AFFEEA31AEE8B4F)
    Complete name                            : D:ГРИНРАЙSandome.no.satsujin.2017.P.BDRip.1080p.mkv
    Format                                   : Matroska
    Format version                           : Version 4 / Version 2
    File size                                : 7.44 GiB
    Duration                                 : 2 h 5 min
    Overall bit rate                         : 8 505 kb/s
    Encoded date                             : UTC 2018-05-16 16:09:44
    Writing application                      : mkvmerge v21.0.0 ("Tardigrades Will Inherit The Earth") 64-bit
    Writing library                          : libebml v1.3.5 + libmatroska v1.4.8

    Video
    ID                                       : 1
    Format                                   : AVC
    Format/Info                              : Advanced Video Codec
    Format profile                           : High@L4.1
    Format settings                          : CABAC / 1 Ref Frames
    Format settings, CABAC                   : Yes
    Format settings, RefFrames               : 1 frame
    Format settings, GOP                     : M=1, N=30
    Codec ID                                 : V_MPEG4/ISO/AVC
    Duration                                 : 2 h 5 min
    Bit rate                                 : 8 312 kb/s
    Width                                    : 1 920 pixels
    Height                                   : 810 pixels
    Display aspect ratio                     : 2.40:1
    Frame rate mode                          : Constant
    Frame rate                               : 23.976 (24000/1001) FPS
    Color space                              : YUV
    Chroma subsampling                       : 4:2:0
    Bit depth                                : 8 bits
    Scan type                                : Progressive
    Bits/(Pixel*Frame)                       : 0.223
    Stream size                              : 7.27 GiB (98%)
    Language                                 : English
    Default                                  : Yes
    Forced                                   : No

    Audio
    ID                                       : 2
    Format                                   : AAC
    Format/Info                              : Advanced Audio Codec
    Format profile                           : LC
    Codec ID                                 : A_AAC-2
    Duration                                 : 2 h 5 min
    Bit rate                                 : 192 kb/s
    Channel(s)                               : 2 channels
    Channel positions                        : Front: L R
    Sampling rate                            : 48.0 kHz
    Frame rate                               : 46.875 FPS (1024 SPF)
    Compression mode                         : Lossy
    Stream size                              : 170 MiB (2%)
    Language                                 : English
    Default                                  : Yes
    Forced                                   : NoСвернуть


    Внимание, имеется  видео и аудио реклама от спонсора показа

    Похожие раздачи Искать похожие
    Инструкция по скачиванию
     1  Качаем uTorrent версии 2.0 и выше
     2  После установки, жмем выше под постером на ссылку Скачать [MediaGet] или Скачать .torrent
     3  Открываем скачанный файл через соответствующий клиент: MediaGet или uTorrent
     4  Ждем пока подключатся участники
     5  Качаем
    Комментарии о  Третье убийство / Sandome no satsujin | HDRip 1080p 
    Ближайшее в кино
    Вверх