• Игры для PS4
  • Игры для PS3
  • Игры для XBOX360
  • Игры для PC
  • Игры для PS2
  • Игры для PSP
  • Для телефонов
  • Музыка
  • Книги / Журналы
  • Обои
  • Опрос
    Откуда Вы о нас узнали?
      0
    • От знакомых2,1,false,300,full
    • Из социальных сетей2,2,false,300,full
    • Из поисковых систем2,3,false,300,full
    • Другое2,4,false,300,full
    Статистика
    Всего онлайн -
    Гостей -
    Пользователей -
    Короли трекера
    
    Благодарности () Закрыть
    Быстрее загружает сайты Экономит интернет—трафик Меняет оформление страницы ВК Блокирует всю рекламу на сайтах Загружает торренты как µTorrent клиент Объеденяет все твои чаты из соц. сетей в один Проигрывает твою музыку не заходя во ВКонтакте
    Новый интернет-браузер
    Оrbitum
    Скачать
    и многое другое... Подробности на сайте производителя
    Информация о фильме
    Название: Стрельба по мишеням
    Оригинальное название: Downrange
    Год выхода: 2017
    Жанр:  Триллер
    Режиссер: Рюхэй Китамура
    В ролях: Келли Коннери, Стефани Пирсон, Род Эрнандес, Энтони Кирлеу, Алекса Йэмс, Джейсон Тобиаш, Эрик Матучек, Икуми Ёсимацу, Хана Бурсон

    О фильме:
    Группа молодых людей путешествует на автомобиле, когда у них вдруг пробивает колесо. Они делают остановку для замены и попадают под обстрел сумасшедшего снайпера.



    Страна: США
    Продолжительность: 01:29:45
    Перевод: Любительский (одноголосый) Хихикающий доктор

    Файл
    Формат: MKV
    Качество: WEB-DLRip-AVC
    Видео: High@L4.1, ~2086 Кбит/с, 1118x468
    Аудио: AC3, 2 ch, 224 Кбит/с

    Присутствует небольшая реклама в титрах

    M/I
    x264 info: frame I:1192  Avg QP:15.36  size: 84766
    x264 info: frame P:33986 Avg QP:17.89  size: 21046
    x264 info: frame B:93942 Avg QP:19.74  size:  6230
    x264 info: consecutive B-frames:  3.3%  4.7%  6.2% 65.7%  6.2%  6.7%  2.3%  1.5%  0.2%  0.2%  0.1%  1.2%  1.8%

    \\\\\

    General
    Unique ID                   : 165672457805871745529754114653612753694 (0x7CA35AD08F129F2DB903181A84C5431E)
    Complete name               : F:FILMSНОВЫЕСтрельба по мишеням_2017_WEB_DLRIP-AVC_[-=DoMiNo=-].mkv
    Format                      : Matroska
    Format version              : Version 4 / Version 2
    File size                   : 1.45 GiB
    Duration                    : 1 h 29 min
    Overall bit rate            : 2 309 kb/s
    Movie name                  : Downrange
    Deion                 : Группа молодых людей путешествует на автомобиле, когда у них вдруг пробивает колесо. Они делают остановку для замены и попадают под обстрел сумасшедшего снайпера.
    Writing application         : XviD4PSP 7.0.451 DAILY
    Writing library             : Lavf57.71.100
    ErrorDetectionType          : Per level 1
    Attachments                 : poster.jpg
    ACTORS                      : Jason Tobias, Graham Skipper, Stephanie Pearson, Alexa Yeames, Kelly Connaire, Rod Hernandez, Anthony Kirlew
    COUNTRY                     : United States
    DATE                        : 2017-09-10
    DIRECTOR                    : Ryûhei Kitamura
    ENCODING_INFO               : MATROSKA,WEBM > MKV Пользовательский / H264 > X264 VBR-2P 2086kbps Пользовательский 2 / AC3 > COPY Безопасное
    GENRE                       : триллер, ужасы
    HD_VIDEO                    : 1
    Language                    : und
    MEDIA_TYPE                  : 9
    PUBLISHER                   : Genco, RIM Entertainment, Eleven Arts
    RATING                      : 5.80

    Video
    ID                          : 1
    Format                      : AVC
    Format/Info                 : Advanced Video Codec
    Format profile              : High@L4.1
    Format settings             : CABAC / 11 Ref Frames
    Format settings, CABAC      : Yes
    Format settings, ReFrames   : 11 frames
    Codec ID                    : V_MPEG4/ISO/AVC
    Duration                    : 1 h 29 min
    Bit rate                    : 2 086 kb/s
    Width                       : 1 118 pixels
    Height                      : 468 pixels
    Display aspect ratio        : 2.40:1
    Frame rate mode             : Constant
    Frame rate                  : 23.976 (24000/1001) FPS
    Color space                 : YUV
    Chroma subsampling          : 4:2:0
    Bit depth                   : 8 bits
    Scan type                   : Progressive
    Bits/(Pixel*Frame)          : 0.166
    Stream size                 : 1.28 GiB (88%)
    Title                       : RIP_BY_-=DoMiNo=-
    Writing library             : x264 core 155 r2901M 7d0ff22
    Encoding settings           : cabac=1 / ref=11 / deblock=1:-3:-3 / analyse=0x3:0x133 / me=umh / subme=11 / psy=1 / psy_rd=1.00:0.03 / mixed_ref=1 / me_range=32 / chroma_me=1 / trellis=2 / 8x8dct=1 / cqm=0 / deadzone=21,11 / fast_pskip=0 / chroma_qp_offset=-3 / threads=6 / lookahead_threads=1 / sliced_threads=0 / nr=0 / decimate=1 / interlaced=0 / bluray_compat=0 / constrained_intra=0 / bframes=12 / b_pyramid=2 / b_adapt=2 / b_bias=0 / direct=3 / weightb=1 / open_gop=0 / weightp=2 / keyint=240 / keyint_min=24 / scenecut=40 / intra_refresh=0 / rc_lookahead=50 / rc=2pass / mbtree=0 / bitrate=2086 / ratetol=1.0 / qcomp=0.60 / qpmin=0 / qpmax=69 / qpstep=4 / cplxblur=20.0 / qblur=0.5 / vbv_maxrate=50000 / vbv_bufsize=62500 / nal_hrd=none / filler=0 / ip_ratio=1.40 / pb_ratio=1.30 / aq=1:1.00
    Default                     : Yes
    Forced                      : No
    Color range                 : Limited
    Color primaries             : BT.709
    Transfer characteristics    : BT.709
    Matrix coefficients         : BT.709

    Audio
    ID                          : 2
    Format                      : AC-3
    Format/Info                 : Audio Coding 3
    Codec ID                    : A_AC3
    Duration                    : 1 h 29 min
    Bit rate mode               : Constant
    Bit rate                    : 224 kb/s
    Channel(s)                  : 2 channels
    Channel positions           : Front: L R
    Sampling rate               : 48.0 kHz
    Frame rate                  : 31.250 FPS (1536 SPF)
    Bit depth                   : 16 bits
    Compression mode            : Lossy
    Stream size                 : 144 MiB (10%)
    Title                       : xixidoktor
    Language                    : Russian
    Service kind                : Complete Main
    Default                     : Yes
    Forced                      : No

    Menu
    00:00:00.000                : :Глава 1
    00:07:42.504                : :Глава 2
    00:15:28.177                : :Глава 3
    00:23:29.158                : :Глава 4
    00:31:09.451                : :Глава 5
    00:39:12.141                : :Глава 6
    00:46:51.100                : :Глава 7
    00:55:00.088                : :Глава 8
    01:02:54.104                : :Глава 9
    01:10:45.533                : :Глава 10
    01:18:17.943                : :Глава 11
    01:26:07.162                : :Глава 12Свернуть


    Скриншоты
    [screen]http://i6.imageban.ru/out/2018/05/17/8c0b1325ff94d06f8b50ac190938fbf4.png[/screen][screen]http://i1.imageban.ru/out/2018/05/17/4858c022e1234e0cedc73fbf4779d5ee.png[/screen][screen]http://i4.imageban.ru/out/2018/05/17/8b1d720579904ea30f9135ad9e015f24.png[/screen][screen]http://i4.imageban.ru/out/2018/05/17/76de25db53bc5a8cd5cd893881417b96.png[/screen][screen]http://i2.imageban.ru/out/2018/05/17/2df863ff7e020fd3661d138768ff9ad9.png[/screen][screen]http://i1.imageban.ru/out/2018/05/17/1667a62ff26e9b06ed328544d89f73ea.png[/screen][screen]http://i5.imageban.ru/out/2018/05/17/d1bc1c39784e7b7c7dc1e966ae5ada9a.png[/screen][screen]http://i3.imageban.ru/out/2018/05/17/6b934b130713649d9950992a60f1e4be.png[/screen]Свернуть
    Инструкция по скачиванию
     1  Качаем uTorrent версии 2.0 и выше
     2  После установки, жмем выше под постером на ссылку Скачать [MediaGet] или Скачать .torrent
     3  Открываем скачанный файл через соответствующий клиент: MediaGet или uTorrent
     4  Ждем пока подключатся участники
     5  Качаем
    Комментарии о  Стрельба по мишеням / Downrange | WEB-DLRip-AVC 
    Ближайшее в кино
    Вверх