• Игры для PS4
  • Игры для PS3
  • Игры для XBOX360
  • Игры для PC
  • Игры для PS2
  • Игры для PSP
  • Для телефонов
  • Музыка
  • Книги / Журналы
  • Обои
  • Опрос
    Откуда Вы о нас узнали?
      0
    • От знакомых2,1,false,300,full
    • Из социальных сетей2,2,false,300,full
    • Из поисковых систем2,3,false,300,full
    • Другое2,4,false,300,full
    Статистика
    Всего онлайн -
    Гостей -
    Пользователей -
    Короли трекера
    
    Благодарности () Закрыть
    Быстрее загружает сайты Экономит интернет—трафик Меняет оформление страницы ВК Блокирует всю рекламу на сайтах Загружает торренты как µTorrent клиент Объеденяет все твои чаты из соц. сетей в один Проигрывает твою музыку не заходя во ВКонтакте
    Новый интернет-браузер
    Оrbitum
    Скачать
    и многое другое... Подробности на сайте производителя
    Информация о фильме
    Название: Немезида 2: Невидимка
    Оригинальное название: Nemesis 2: Nebula
    Год выхода: 1995
    Жанр:  Фантастика, боевик, триллер
    Режиссер: Альберт Пьюн
    В ролях: Сью Прайс, Чад Стахелски, Тина Коте, Эрл Уайт, Джахи Дж.Дж. Зури, Карен Стадер, Шелтон Бейли, Донья Динна, Джон Х. Эпштейн, Шэрон Брунэо, Дэбби Маггли, Захари Стадер, Дэйв Фишер, Бобби Браун

    О фильме :
    Война между людьми и киборгами началась 73 года назад, в 2027 году. Войну выиграли киборги, и люди стали их рабами. Ученый движения сопротивления создал супермолекулу ДНК. Женщина Зана была избрана, чтобы родить этого человека. Киборги узнали об опасности и начали охоту при помощи главного охотника Небьюлы. Зана знала, где был спрятан корабль, способный путешествовать во времени. Она попадает в Западную Африку 1980 года, где идет бесконечная межплеменная война. Там она оставляет свою дочь Алекс, думая, что когда-нибудь она придет к ней и выиграет войну с киборгами. Но сама она почти сразу же погибает. Ребенок остается один, и его усыновляет местное племя храбрецов. Проходит 20 лет...



    Выпущено: США, Filmwerks, Imperial Entertainment
    Продолжительность: 01:24:29
    Перевод 1: Авторский (одноголосый закадровый) Леонид Володарский
    Перевод 2: Авторский (одноголосый закадровый) Юрий Сербин

    Файл
    Формат: MKV
    Качество: BDRip-AVC (BDRemux 1080p)
    Видео: MPEG-4 AVC, 800x380, ~ 1080 Кбит/с
    Аудио 1: [img]http://i93.fastpic.ru/big/2017/0727/c0/4b72f0369a3393219ed5935e91fc15c0.gif[/img] AAC-HE, 2 ch, ~ 76 Кбит/с | AVO, Володарский
    Аудио 2: [img]http://i93.fastpic.ru/big/2017/0727/c0/4b72f0369a3393219ed5935e91fc15c0.gif[/img] AAC-HE, 2 ch, ~ 76 Кбит/с | AVO, Сербин
    Субтитры: Нет

    MI
    Общее
    Уникальный идентификатор : 206487536835125934845835667441067931962 (0x9B580D9398055615B4B09A12450AB93A)
    Полное имя : D:MOVIESNemezida.2.Nevidimka.1995.ExKinoRay.mkv
    Формат : Matroska
    Версия формата : Version 4 / Version 2
    Размер файла : 745 Мбайт
    Продолжительность : 1 ч. 24 м.
    Общий поток : 1233 Кбит/сек
    Дата кодирования : UTC 2018-05-17 03:55:39
    Программа кодирования : mkvmerge v15.0.0 ("Duel with the Devil") 64-bit
    Библиотека кодирования : libebml v1.3.5 + libmatroska v1.4.5

    Видео
    Идентификатор : 1
    Формат : AVC
    Формат/Информация : Advanced Video Codec
    Профиль формата : High@L4.1
    Параметр CABAC формата : Да
    Параметр RefFrames формата : 10 кадров
    Идентификатор кодека : V_MPEG4/ISO/AVC
    Продолжительность : 1 ч. 24 м.
    Битрейт : 1080 Кбит/сек
    Ширина : 800 пикселей
    Высота : 380 пикселей
    Соотношение сторон : 2,105
    Режим частоты кадров : Постоянный
    Частота кадров : 24,000 кадра/сек
    Цветовое пространство : YUV
    Субдискретизация насыщенности : 4:2:0
    Битовая глубина : 8 бит
    Тип развёртки : Прогрессивная
    Бит/(Пиксели*Кадры) : 0.148
    Размер потока : 652 Мбайт (87%)
    Библиотека кодирования : x264 core 155 r2901 7d0ff22
    Настройки программы : cabac=1 / ref=10 / deblock=1:-3:-3 / analyse=0x3:0x133 / me=umh / subme=11 / psy=1 / psy_rd=1.00:0.13 / mixed_ref=1 / me_range=32 / chroma_me=1 / trellis=2 / 8x8dct=1 / cqm=0 / deadzone=21,11 / fast_pskip=0 / chroma_qp_offset=-3 / threads=6 / lookahead_threads=1 / sliced_threads=0 / nr=0 / decimate=0 / interlaced=0 / bluray_compat=0 / constrained_intra=0 / bframes=10 / b_pyramid=2 / b_adapt=2 / b_bias=0 / direct=3 / weightb=1 / open_gop=0 / weightp=2 / keyint=240 / keyint_min=23 / scenecut=40 / intra_refresh=0 / rc_lookahead=40 / rc=2pass / mbtree=1 / bitrate=1080 / ratetol=1.0 / qcomp=0.60 / qpmin=0 / qpmax=69 / qpstep=4 / cplxblur=20.0 / qblur=0.5 / vbv_maxrate=50000 / vbv_bufsize=62500 / nal_hrd=none / filler=0 / ip_ratio=1.40 / aq=3:1.00
    Default : Да
    Forced : Нет

    Аудио #1
    Идентификатор : 2
    Формат : AAC
    Формат/Информация : Advanced Audio Codec
    Профиль формата : HE-AAC / LC
    Идентификатор кодека : A_AAC
    Продолжительность : 1 ч. 24 м.
    Битрейт : 76,0 Кбит/сек
    Каналы : 2 канала
    Расположение каналов : Front: L R
    Частота : 48,0 КГц / 24,0 КГц
    Частота кадров : 23,438 кадра/сек (1024 SPF)
    Метод сжатия : С потерями
    Задержка видео : 31 мс.
    Размер потока : 45,9 Мбайт (6%)
    Язык : Russian
    Default : Да
    Forced : Нет

    Аудио #2
    Идентификатор : 3
    Формат : AAC
    Формат/Информация : Advanced Audio Codec
    Профиль формата : HE-AAC / LC
    Идентификатор кодека : A_AAC
    Продолжительность : 1 ч. 24 м.
    Битрейт : 76,0 Кбит/сек
    Каналы : 2 канала
    Расположение каналов : Front: L R
    Частота : 48,0 КГц / 24,0 КГц
    Частота кадров : 23,438 кадра/сек (1024 SPF)
    Метод сжатия : С потерями
    Задержка видео : 31 мс.
    Размер потока : 45,9 Мбайт (6%)
    Язык : Russian
    Default : Нет
    Forced : Нет

    Меню
    00:00:00.000 : en:Chapter 01
    00:00:00.750 : en:Chapter 02
    00:12:26.833 : en:Chapter 03
    00:20:07.250 : en:Chapter 04
    00:30:27.291 : en:Chapter 05
    00:41:03.583 : en:Chapter 06
    00:56:05.666 : en:Chapter 07
    01:01:08.000 : en:Chapter 08
    01:13:07.958 : en:Chapter 09
    Свернуть


    Скриншоты
    [screen]http://i105.fastpic.ru/big/2018/0517/6b/5de6daa78b0ab75524364c81af47896b.jpg[/screen][screen]http://i104.fastpic.ru/big/2018/0517/34/dc572e5b8eab582ffc998ff87cf6b134.jpg[/screen][screen]http://i105.fastpic.ru/big/2018/0517/a0/d74ff76693467c1dfef509eb6b102fa0.jpg[/screen][screen]http://i105.fastpic.ru/big/2018/0517/cc/68a39c5650e2dff3e50f9aab26609bcc.jpg[/screen]

    [screen]http://i104.fastpic.ru/big/2018/0517/be/25aa65e0f3239191d1b0c50d28e062be.jpg[/screen][screen]http://i105.fastpic.ru/big/2018/0517/64/dcccf0048dcc639f0e00177906de9664.jpg[/screen][screen]http://i105.fastpic.ru/big/2018/0517/e0/b153eaee4c0e7490105ede3f556d77e0.jpg[/screen][screen]http://i105.fastpic.ru/big/2018/0517/32/299c8adf2479975b7c0ebf54e5343d32.jpg[/screen]
    Свернуть
    Похожие раздачи Искать похожие
    Инструкция по скачиванию
     1  Качаем uTorrent версии 2.0 и выше
     2  После установки, жмем выше под постером на ссылку Скачать [MediaGet] или Скачать .torrent
     3  Открываем скачанный файл через соответствующий клиент: MediaGet или uTorrent
     4  Ждем пока подключатся участники
     5  Качаем
    Комментарии о  Немезида 2: Невидимка / Nemesis 2: Nebula | BDRip-AVC 
    Ближайшее в кино
    Вверх