• Игры для PS3
  • Игры для XBOX360
  • Игры для PC
  • Игры для PS2
  • Игры для PSP
  • Для телефонов
  • Музыка
  • Книги/Журналы
  • Обои
  •  
    Опрос
    Откуда Вы о нас узнали?
      0
    • От знакомых2,1,false,300,full
    • Из социальных сетей2,2,false,300,full
    • Из поисковых систем2,3,false,300,full
    • Другое2,4,false,300,full
    Статистика
    Загрузка...
    Радуга / Una questione privata | HDRip 1080p
    Статус  Проверено
    В закладки
    Модератор: Max

    Радуга / Una questione privata | HDRip 1080p [Фильмы 2017] скачать торрентом/torrent бесплатно

    Год выхода
    Категории
    Язык
    Закачал
    Max | 17 мая в 19ч 20м 22с
    Раздел
    Отзывов
    0
    Раздают: 14 Качают: 13 Скачали: 37 Размер: 5.11 GB
    Инфо о раздаче | Благодарности |
    0/5
    0
    0 5 0
    Поддержи нас — расскажи друзьям!
    Orbitum
    Новый интернет-браузер Быстрее загружает сайты Экономит интернет—трафик Меняет оформление страницы ВК Блокирует всю рекламу на сайтах Загружает торренты как

    µTorrent

    клиент
    Объеденяет все твои чаты из соц. сетей в один Проигрывает твою музыку не заходя во ВКонтакте
    Скачать и многое другое... Подробности на сайте производителя
    Информация о фильме
    Год выхода: 2017
    Наименование: Радуга
    Оригинальное наименование: Una questione privata
    Произведено: Италия
    Жанр:  военный
    Режиссер постановщик: Паоло Тавиани
    В главных ролях: Лоренцо Рикельми, Валентина Белле, Лука Маринелли, Алессандро Спердути, Гульельмо Фавилла, Франческа Агостини, Франческо Турбанти, Анна Ферруццо

    О фильме: Лето 1943 года, Пьемонт. Мильтон безответно влюблен в Фульвию, они проводят много времени вместе, но девушка ценит его только как друга. Год спустя Мильтон присоединяется к партизанскому движению Сопротивления. Однажды он случайно узнает, что у Фульвии на самом деле был роман с его другом Джорджио. Мильтон решает отправится на поиски Джорджио, еще не зная, что тот был арестован властями за участие в Сопротивлении, и участь его предрешена.



    Файл
    Качество:  HDRip 1080p
    Видео данные: MKV, 1920x800 (2.40:1), 23.976 fps, 8486 Кбит/с
    Аудио данные: AAC, 2 ch, 192 Кбит/с
    Перевод: Любительский многоголосый (GreenРай Studio)
    Продолжительность: 01:24:13

    Медиаинфо
    General
    Unique ID                                : 73920470137186738692267145490065078706 (0x379C908FC9DDEA8BC37BC2454C3D39B2)
    Complete name                            : D:ГРИНРАЙUna.questione.privata.2017.P.BDRip.1080p.mkv
    Format                                   : Matroska
    Format version                           : Version 4 / Version 2
    File size                                : 5.11 GiB
    Duration                                 : 1 h 24 min
    Overall bit rate                         : 8 678 kb/s
    Encoded date                             : UTC 2018-05-16 17:10:48
    Writing application                      : mkvmerge v21.0.0 ("Tardigrades Will Inherit The Earth") 64-bit
    Writing library                          : libebml v1.3.5 + libmatroska v1.4.8

    Video
    ID                                       : 1
    Format                                   : AVC
    Format/Info                              : Advanced Video Codec
    Format profile                           : High@L4.1
    Format settings                          : CABAC / 1 Ref Frames
    Format settings, CABAC                   : Yes
    Format settings, RefFrames               : 1 frame
    Format settings, GOP                     : M=1, N=30
    Codec ID                                 : V_MPEG4/ISO/AVC
    Duration                                 : 1 h 24 min
    Bit rate                                 : 8 486 kb/s
    Width                                    : 1 920 pixels
    Height                                   : 800 pixels
    Display aspect ratio                     : 2.40:1
    Frame rate mode                          : Constant
    Frame rate                               : 23.976 (24000/1001) FPS
    Color space                              : YUV
    Chroma subsampling                       : 4:2:0
    Bit depth                                : 8 bits
    Scan type                                : Progressive
    Bits/(Pixel*Frame)                       : 0.230
    Stream size                              : 4.99 GiB (98%)
    Language                                 : English
    Default                                  : Yes
    Forced                                   : No

    Audio
    ID                                       : 2
    Format                                   : AAC
    Format/Info                              : Advanced Audio Codec
    Format profile                           : LC
    Codec ID                                 : A_AAC-2
    Duration                                 : 1 h 24 min
    Bit rate                                 : 192 kb/s
    Channel(s)                               : 2 channels
    Channel positions                        : Front: L R
    Sampling rate                            : 48.0 kHz
    Frame rate                               : 46.875 FPS (1024 SPF)
    Compression mode                         : Lossy
    Stream size                              : 114 MiB (2%)
    Language                                 : English
    Default                                  : Yes
    Forced                                   : No


    Внимание, имеется  видео и аудио реклама от спонсора показа

    Еще похожие »

    Как скачать?
    1. Качаем UTorrent версии 2.0 и выше отсюда
    2. После установки, жмем на ссылку Скачать торрент.
    3. Открываем его через utorrent.
    4. Ждем пока подключатся участники.
    5. Качаем.


    Комментарии о Радуга / Una questione privata | HDRip 1080p
    Добавлять комментарии могут только зарегистрированные пользователи

    Зарегистрироваться или Войти


    Ближайшее в кино
    • Хан Соло: Звёздные Войны. Истории дата выхода 24 мая 2018Хан Соло: Звёздные Войны. Истории
      Дата выхода: 24 мая 2018
    • 719155|Секса не будет!!!|24 мая 2018|200|300Секса не будет!!!
      Дата выхода: 24 мая 2018
    • 912012|Распрекрасный принц|24 мая 2018|200|300Распрекрасный принц
      Дата выхода: 24 мая 2018
    • 1006294|Круги дьявола|24 мая 2018|200|300Круги дьявола
      Дата выхода: 24 мая 2018
    • 842709|Садко|24 мая 2018|200|300Садко
      Дата выхода: 24 мая 2018
    • 1044310|Гупёшка|24 мая 2018|200|300Гупёшка
      Дата выхода: 24 мая 2018
    • 893681|Черновик|25 мая 2018|200|300Черновик
      Дата выхода: 25 мая 2018
    • 1138771|МУЛЬТ в кино. Выпуск 76. Лето, привет!|26 мая 2018|200|300МУЛЬТ в кино. Выпуск 76. Лето, привет!
      Дата выхода: 26 мая 2018
    • 959365|Невидимый гость|31 мая 2018|200|300Невидимый гость
      Дата выхода: 31 мая 2018
    • 762500|Красный воробей|31 мая 2018|200|300Красный воробей
      Дата выхода: 31 мая 2018
    • 843121|Как разговаривать с девушками на вечеринках|31 мая 2018|200|300Как разговаривать с девушками на вечеринках
      Дата выхода: 31 мая 2018
    • 965611|Истории призраков|31 мая 2018|200|300Истории призраков
      Дата выхода: 31 мая 2018
    • 1048530|Моя жизнь|31 мая 2018|200|300Моя жизнь
      Дата выхода: 31 мая 2018
    • 1030828|Псы под прикрытием|31 мая 2018|200|300Псы под прикрытием
      Дата выхода: 31 мая 2018
    • 927822|Два хвоста|31 мая 2018|200|300Два хвоста
      Дата выхода: 31 мая 2018
    Вверх