• Игры для PS4
  • Игры для PS3
  • Игры для XBOX360
  • Игры для PC
  • Игры для PS2
  • Игры для PSP
  • Для телефонов
  • Музыка
  • Книги / Журналы
  • Обои
  • Опрос
    Удобен ли сайт в использовании?
      0
    • Очень удобен, все понятно1,1,false,300,full
    • Удобен1,2,false,300,full
    • Средне1,3,false,300,full
    • Неудобен, трудно ориентироваться1,4,false,300,full
    • Совсем неудобен1,5,false,300,full
    Статистика
    Всего онлайн -
    Гостей -
    Пользователей -
    Короли трекера
    
    Благодарности () Закрыть
    Быстрее загружает сайты Экономит интернет—трафик Меняет оформление страницы ВК Блокирует всю рекламу на сайтах Загружает торренты как µTorrent клиент Объеденяет все твои чаты из соц. сетей в один Проигрывает твою музыку не заходя во ВКонтакте
    Новый интернет-браузер
    Оrbitum
    Скачать
    и многое другое... Подробности на сайте производителя
    Входящий / Incoming

    Страна: Сербия [img]http://st.kp.yandex.net/images/flags/flag-177.gif[/img]
    Производство: Premiere Entertainment Group, Red Production, Sharp House, Benattar/Thomas Productions
    Год выпуска: 2018
    Жанр:  фантастика, боевик, триллер
    Продолжительность: 01:29:06

    Режиссер: Эрик Сарагоса / Eric Zaragoza
    Авторы сценария: Хорхе Саралеги, Рик Бенаттар, Найджел Томас

    В ролях: Скотт Эдкинс, Доминик Пауэр, Аарон МакКаскер, Алаа Умузун, Арки Аломар, Лукас Лоугрэн, Миодраг Капор, Владан Дужович

    Описание: Международная космическая станция превратилась в секретную тюрьму, из которой никто не выходит, и никто не знает, что именно там происходит. Когда заключенные террористы захватывают станцию и направляют её на Москву, только пилот и новичок-доктор могут остановить их. Эта задача усложняется бывшим агентом ЦРУ, у которого свои планы и на станцию, и на террористов...



    Перевод: Профессиональный (многоголосый, закадровый) | HDrezka Studio
    Субтитры: нет

    Качество: WEBRip 1080р
    Формат: МКV
    Видео кодек: AVC
    Аудио кодек: АС3
    Видео: 1920x848 (2.25:1), 23.976 fps, MPEG-4 AVC ~4 479 kbps avg
    Аудио №1: 48.0 kHz, AC3 Dolby Digital, 2/0 (L,R) ch, ~384 kbps | RUS | HDrezka Studio
    Аудио №2: 48.0 kHz, AC3 Dolby Digital, 3/2 (L,C,R,l,r) + LFE ch, ~384 kbps | ENG

    Дата премьеры (мир): 4 мая 2018

    [img]http://s018.radikal.ru/i522/1609/79/3d079e982089.gif[/img]

    Media Info
    General
    Unique ID                      : 229276635679476205363918753442790521786 (0xAC7D12E5E3E67CF5BA92091C869E3BBA)
    Format                         : Matroska
    Format version                 : Version 2
    File size                      : 3.33 GiB
    Duration                       : 1h 29mn
    Overall bit rate               : 5 354 Kbps
    Encoded date                   : UTC 2018-05-17 06:32:06
    Writing application            : mkvmerge v7.8.0 ("River Man") 32bit built on Apr  3 2015 12:11:22
    Writing library                : libebml v1.3.1 + libmatroska v1.4.2

    Video
    ID                             : 1
    Format                         : AVC
    Format/Info                    : Advanced Video Codec
    Format profile                 : High@L4
    Format settings, CABAC         : Yes
    Format settings, ReFrames      : 5 frames
    Codec ID                       : V_MPEG4/ISO/AVC
    Duration                       : 1h 29mn
    Bit rate                       : 4 479 Kbps
    Width                          : 1 920 pixels
    Height                         : 848 pixels
    Display aspect ratio           : 2.25:1
    Frame rate mode                : Constant
    Frame rate                     : 23.976 fps
    Color space                    : YUV
    Chroma subsampling             : 4:2:0
    Bit depth                      : 8 bits
    Scan type                      : Progressive
    Bits/(Pixel*Frame)             : 0.115
    Stream size                    : 2.79 GiB (84%)
    Language                       : English
    Default                        : Yes
    Forced                         : No
    Color range                    : Limited
    Color primaries                : BT.709
    Transfer characteristics       : BT.709
    Matrix coefficients            : BT.709

    Audio #1
    ID                             : 2
    Format                         : AC-3
    Format/Info                    : Audio Coding 3
    Mode extension                 : CM (complete main)
    Format settings, Endianness    : Big
    Codec ID                       : A_AC3
    Duration                       : 1h 29mn
    Bit rate mode                  : Constant
    Bit rate                       : 384 Kbps
    Channel(s)                     : 2 channels
    Channel positions              : Front: L R
    Sampling rate                  : 48.0 KHz
    Compression mode               : Lossy
    Delay relative to video        : -42ms
    Stream size                    : 245 MiB (7%)
    Language                       : Russian
    Default                        : Yes
    Forced                         : Yes

    Audio #2
    ID                             : 3
    Format                         : AC-3
    Format/Info                    : Audio Coding 3
    Mode extension                 : CM (complete main)
    Format settings, Endianness    : Big
    Codec ID                       : A_AC3
    Duration                       : 1h 29mn
    Bit rate mode                  : Constant
    Bit rate                       : 384 Kbps
    Channel(s)                     : 6 channels
    Channel positions              : Front: L C R, Side: L R, LFE
    Sampling rate                  : 48.0 KHz
    Compression mode               : Lossy
    Delay relative to video        : -42ms
    Stream size                    : 245 MiB (7%)
    Language                       : English
    Default                        : No
    Forced                         : No

    Menu
    00:00:00.000                   : en:1
    00:11:16.134                   : en:2
    00:21:51.185                   : en:3
    00:32:06.884                   : en:4
    00:45:02.951                   : en:5
    00:56:29.262                   : en:6
    01:06:51.217                   : en:7
    01:18:24.910                   : en:8
    01:25:51.147                   : en:9Свернуть


    Похожие раздачи Искать похожие
    Инструкция по скачиванию
     1  Качаем uTorrent версии 2.0 и выше
     2  После установки, жмем выше под постером на ссылку Скачать [MediaGet] или Скачать .torrent
     3  Открываем скачанный файл через соответствующий клиент: MediaGet или uTorrent
     4  Ждем пока подключатся участники
     5  Качаем
    Комментарии о  Входящий / Incoming | WEBRip 1080p 
    Ближайшее в кино
    Вверх