• Игры для PS4
  • Игры для PS3
  • Игры для XBOX360
  • Игры для PC
  • Игры для PS2
  • Игры для PSP
  • Для телефонов
  • Музыка
  • Книги / Журналы
  • Обои
  • Опрос
    Откуда Вы о нас узнали?
      0
    • От знакомых2,1,false,300,full
    • Из социальных сетей2,2,false,300,full
    • Из поисковых систем2,3,false,300,full
    • Другое2,4,false,300,full
    Статистика
    Всего онлайн -
    Гостей -
    Пользователей -
    Короли трекера
    
    Благодарности () Закрыть
    Входящий / Incoming

    Страна: Сербия [img]http://st.kp.yandex.net/images/flags/flag-177.gif[/img]
    Производство: Premiere Entertainment Group, Red Production, Sharp House, Benattar/Thomas Productions
    Год выпуска: 2018
    Жанр:  фантастика, боевик, триллер
    Продолжительность: 01:29:06

    Режиссер: Эрик Сарагоса / Eric Zaragoza
    Авторы сценария: Хорхе Саралеги, Рик Бенаттар, Найджел Томас

    В ролях: Скотт Эдкинс, Доминик Пауэр, Аарон МакКаскер, Алаа Умузун, Арки Аломар, Лукас Лоугрэн, Миодраг Капор, Владан Дужович

    Описание: Международная космическая станция превратилась в секретную тюрьму, из которой никто не выходит, и никто не знает, что именно там происходит. Когда заключенные террористы захватывают станцию и направляют её на Москву, только пилот и новичок-доктор могут остановить их. Эта задача усложняется бывшим агентом ЦРУ, у которого свои планы и на станцию, и на террористов...



    Перевод: Профессиональный (многоголосый, закадровый) | HDrezka Studio
    Субтитры: нет

    Качество: WEBRip
    Формат: AVI
    Видео кодек: XviD
    Аудио кодек: АС3
    Видео: 720x320 (2.25:1), 23.976 fps, XviD ~1 946 kbps avg
    Аудио: 48.0 kHz, AC3 Dolby Digital, 2/0 (L,R) ch, ~384 kbps

    Дата премьеры (мир): 4 мая 2018

    [img]http://s018.radikal.ru/i522/1609/79/3d079e982089.gif[/img]

    Media Info
    General
    Complete name                  : Incoming (2018) WEBRip.avi
    Format                         : AVI
    Format/Info                    : Audio Video Interleave
    File size                      : 1.46 GiB
    Duration                       : 1h 29mn
    Overall bit rate               : 2 340 Kbps
    Writing application            : VirtualDubMod 1.5.10.3 | (build 2550/release)
    Writing library                : VirtualDubMod build 2550/release

    Video
    ID                             : 0
    Format                         : MPEG-4 Visual
    Format profile                 : Advanced Simple@L5
    Format settings, BVOP          : 1
    Format settings, QPel          : No
    Format settings, GMC           : No warppoints
    Format settings, Matrix        : Custom
    Codec ID                       : XVID
    Codec ID/Hint                  : XviD
    Duration                       : 1h 29mn
    Bit rate                       : 1 946 Kbps
    Width                          : 720 pixels
    Height                         : 320 pixels
    Display aspect ratio           : 2.25:1
    Frame rate                     : 23.976 fps
    Color space                    : YUV
    Chroma subsampling             : 4:2:0
    Bit depth                      : 8 bits
    Scan type                      : Progressive
    Compression mode               : Lossy
    Bits/(Pixel*Frame)             : 0.352
    Stream size                    : 1.21 GiB (83%)
    Writing library                : XviD 1.2.1 (UTC 2008-12-04)

    Audio
    ID                             : 1
    Format                         : AC-3
    Format/Info                    : Audio Coding 3
    Mode extension                 : CM (complete main)
    Format settings, Endianness    : Big
    Codec ID                       : 2000
    Duration                       : 1h 29mn
    Bit rate mode                  : Constant
    Bit rate                       : 384 Kbps
    Channel(s)                     : 2 channels
    Channel positions              : Front: L R
    Sampling rate                  : 48.0 KHz
    Compression mode               : Lossy
    Stream size                    : 245 MiB (16%)
    Alignment                      : Split accross interleaves
    Interleave, duration           : 42 ms (1.00 video frame)
    Interleave, preload duration   : 500 msСвернуть


    Скриншоты
    [screen]http://i105.fastpic.ru/thumb/2018/0517/ac/a72f009e22592fdbb21a37c7dcd373ac.jpeg[/screen][screen]http://i105.fastpic.ru/big/2018/0517/df/ffb0e681f9bd7c1469dbd8d4d9cfffdf.jpg[/screen][screen]http://i105.fastpic.ru/big/2018/0517/f9/13e67c1126afe4eddfe63c7651cb8ff9.jpg[/screen][screen]http://i105.fastpic.ru/big/2018/0517/af/246df63eb47956b068e65b37887ea6af.jpg[/screen]Свернуть
    Похожие раздачи Искать похожие
    Инструкция по скачиванию
     1  Качаем uTorrent версии 2.0 и выше
     2  После установки, жмем выше под постером на ссылку Скачать [MediaGet] или Скачать .torrent
     3  Открываем скачанный файл через соответствующий клиент: MediaGet или uTorrent
     4  Ждем пока подключатся участники
     5  Качаем
    Комментарии о  Входящий / Incoming | WEBRip 
    Ближайшее в кино
    Вверх