• Игры для PS3
  • Игры для XBOX360
  • Игры для PC
  • Игры для PS2
  • Игры для PSP
  • Для телефонов
  • Музыка
  • Книги/Журналы
  • Обои
  •  
    Опрос
    Удобен ли сайт в использовании?
      0
    • Очень удобен, все понятно1,1,false,300,full
    • Удобен1,2,false,300,full
    • Средне1,3,false,300,full
    • Неудобен, трудно ориентироваться1,4,false,300,full
    • Совсем неудобен1,5,false,300,full
    Статистика
    Загрузка...
    Тихоокеанский рубеж 2 / Pacific Rim Uprising | WEB-DLRip-AVC
    Статус  Проверено
    В закладки
    Модератор: Max

    Тихоокеанский рубеж 2 / Pacific Rim Uprising | WEB-DLRip-AVC [Фильмы 2018] скачать торрентом/torrent бесплатно

    Год выхода
    Язык
    Закачал
    Аноним | 17 мая в 19ч 32м 13с
    Раздел
    Отзывов
    0
    Раздают: 164 Качают: 52 Скачали: 461 Размер: 745.8 MB
    Инфо о раздаче | Благодарности |
    0/5
    0
    0 5 0
    Поддержи нас — расскажи друзьям!
    Orbitum
    Новый интернет-браузер Быстрее загружает сайты Экономит интернет—трафик Меняет оформление страницы ВК Блокирует всю рекламу на сайтах Загружает торренты как

    µTorrent

    клиент
    Объеденяет все твои чаты из соц. сетей в один Проигрывает твою музыку не заходя во ВКонтакте
    Скачать и многое другое... Подробности на сайте производителя
    Информация о фильме
    Название: Тихоокеанский рубеж 2
    Оригинальное название: Pacific Rim Uprising
    Год выхода: 2018
    Жанр:  Фантастика, боевик, приключения
    Режиссер: Стивен С. ДеНайт
    В ролях: Джон Бойега, Скотт Иствуд, Кэйли Спэни, Берн Горман, Чарли Дэй, Тянь Цзин, Макс Чжан, Адриа Архона, Ринко Кикучи, Каран Брэр, Уэсли Вон, Иванна Сахно, Макэню Арата, Лили Цзи, Ширли Родригес, Цзытун Чэнь, Дастин Клер, Сяовэй Юй, Юнчэнь Цянь, Леви Миден, Цзямин Го, Инъин Лань, Зеппелин Хэмилтон

    О фильме :
    События происходят через несколько лет после битвы за Тихоокеанский рубеж, когда команда пилотируемых роботов-защитников остановила вторжение на нашу планету гигантских монстров-Кайдзю и закрыла связывающий миры портал. Города восстанавливаются после разрушительных сражений. Рассказы о войне и её героях становятся историей. Однако многие считают, что Кайдзю вернутся, поэтому отбор и подготовка новых пилотов не прекращаются. Действительно, очень скоро становится понятно, что война не окончена, и своё право на Землю предстоит отстаивать уже новому поколению.



    Страна: Китай, США,
    Студия: Universal Pictures
    Продолжительность: 01:50:41
    Перевод: Дублированный | iTunes

    Файл
    Формат: MKV
    Качество: WEB-DLRip-AVC
    Видео: MPEG-4 AVC, 768x320, ~ 865 Кбит/с
    Аудио: [img]http://i93.fastpic.ru/big/2017/0727/c0/4b72f0369a3393219ed5935e91fc15c0.gif[/img] AAC-HE, 2 ch, ~ 76 Кбит/с
    Субтитры: Русские (Форсированные, вшитые)

    MI
    Общее
    Уникальный идентификатор : 194890986654071940179027024520916384831 (0x929EA3826BEB2B41BFEDA972EEDE3C3F)
    Полное имя : D:MOVIESPacific.Rim.Uprising.2018.ExKinoRay.mkv
    Формат : Matroska
    Версия формата : Version 4 / Version 2
    Размер файла : 746 Мбайт
    Продолжительность : 1 ч. 50 м.
    Общий поток : 942 Кбит/сек
    Дата кодирования : UTC 2018-05-17 09:37:20
    Программа кодирования : mkvmerge v15.0.0 ("Duel with the Devil") 64-bit
    Библиотека кодирования : libebml v1.3.5 + libmatroska v1.4.5

    Видео
    Идентификатор : 1
    Формат : AVC
    Формат/Информация : Advanced Video Codec
    Профиль формата : High@L4.1
    Параметр CABAC формата : Да
    Параметр RefFrames формата : 10 кадров
    Идентификатор кодека : V_MPEG4/ISO/AVC
    Продолжительность : 1 ч. 50 м.
    Битрейт : 865 Кбит/сек
    Ширина : 768 пикселей
    Высота : 320 пикселей
    Соотношение сторон : 2,40:1
    Режим частоты кадров : Постоянный
    Частота кадров : 23,976 (24000/1001) кадра/сек
    Цветовое пространство : YUV
    Субдискретизация насыщенности : 4:2:0
    Битовая глубина : 8 бит
    Тип развёртки : Прогрессивная
    Бит/(Пиксели*Кадры) : 0.147
    Размер потока : 684 Мбайт (92%)
    Библиотека кодирования : x264 core 155 r2901 7d0ff22
    Настройки программы : cabac=1 / ref=10 / deblock=1:-3:-3 / analyse=0x3:0x133 / me=umh / subme=11 / psy=1 / psy_rd=1.00:0.15 / mixed_ref=1 / me_range=32 / chroma_me=1 / trellis=2 / 8x8dct=1 / cqm=0 / deadzone=21,11 / fast_pskip=0 / chroma_qp_offset=-3 / threads=6 / lookahead_threads=1 / sliced_threads=0 / nr=0 / decimate=0 / interlaced=0 / bluray_compat=0 / constrained_intra=0 / bframes=10 / b_pyramid=2 / b_adapt=2 / b_bias=0 / direct=3 / weightb=1 / open_gop=0 / weightp=2 / keyint=240 / keyint_min=23 / scenecut=40 / intra_refresh=0 / rc_lookahead=40 / rc=2pass / mbtree=1 / bitrate=865 / ratetol=1.0 / qcomp=0.60 / qpmin=0 / qpmax=69 / qpstep=4 / cplxblur=20.0 / qblur=0.5 / vbv_maxrate=50000 / vbv_bufsize=62500 / nal_hrd=none / filler=0 / ip_ratio=1.40 / aq=3:1.00
    Default : Да
    Forced : Нет

    Аудио
    Идентификатор : 2
    Формат : AAC
    Формат/Информация : Advanced Audio Codec
    Профиль формата : HE-AAC / LC
    Идентификатор кодека : A_AAC
    Продолжительность : 1 ч. 50 м.
    Битрейт : 76,0 Кбит/сек
    Каналы : 2 канала
    Расположение каналов : Front: L R
    Частота : 48,0 КГц / 24,0 КГц
    Частота кадров : 23,438 кадра/сек (1024 SPF)
    Метод сжатия : С потерями
    Задержка видео : 31 мс.
    Размер потока : 60,2 Мбайт (8%)
    Default : Да
    Forced : Нет

    Меню
    00:00:00.000 : en:1
    00:06:55.874 : en:2
    00:13:06.369 : en:3
    00:15:52.076 : en:4
    00:20:37.361 : en:5
    00:24:50.697 : en:6
    00:31:09.242 : en:7
    00:37:57.066 : en:8
    00:43:38.948 : en:9
    00:49:02.938 : en:10
    00:53:41.925 : en:11
    00:58:13.028 : en:12
    01:04:46.004 : en:13
    01:09:26.533 : en:14
    01:14:37.718 : en:15
    01:22:54.422 : en:16
    01:29:03.540 : en:17
    01:33:11.578 : en:18
    01:38:08.374 : en:19
    01:40:56.041 : en:20


    Скриншоты
    [img]http://i105.fastpic.ru/big/2018/0517/88/ac11c4567b1ef19e3c6aa8e1ae80f388.jpg[/img][img]http://i105.fastpic.ru/big/2018/0517/0d/79d3416b1f293242b22a1d1fd069de0d.jpg[/img][img]http://i105.fastpic.ru/big/2018/0517/3d/1e4a0658a6a66017f00d973a99a6ae3d.jpg[/img][img]http://i104.fastpic.ru/big/2018/0517/17/951da9a5b9bd3748de9bd0f10a746e17.jpg[/img]

    [img]http://i104.fastpic.ru/big/2018/0517/b8/7f02883b2c78098417437ccc15e159b8.jpg[/img][img]http://i105.fastpic.ru/big/2018/0517/5a/c56b0f6acc72ffffd76b537762f0965a.jpg[/img][img]http://i104.fastpic.ru/big/2018/0517/d7/2bea7804d758380b6bb0a322a30ab0d7.jpg[/img][img]http://i104.fastpic.ru/big/2018/0517/b5/fcfd7340d804c03ecea1d89b013fcdb5.jpg[/img]
    Еще похожие »

    Как скачать?
    1. Качаем UTorrent версии 2.0 и выше отсюда
    2. После установки, жмем на ссылку Скачать торрент.
    3. Открываем его через utorrent.
    4. Ждем пока подключатся участники.
    5. Качаем.


    Комментарии о Тихоокеанский рубеж 2 / Pacific Rim Uprising | WEB-DLRip-AVC
    Добавлять комментарии могут только зарегистрированные пользователи

    Зарегистрироваться или Войти


    Ближайшее в кино
    • Хан Соло: Звёздные Войны. Истории дата выхода 24 мая 2018Хан Соло: Звёздные Войны. Истории
      Дата выхода: 24 мая 2018
    • 719155|Секса не будет!!!|24 мая 2018|200|300Секса не будет!!!
      Дата выхода: 24 мая 2018
    • 912012|Распрекрасный принц|24 мая 2018|200|300Распрекрасный принц
      Дата выхода: 24 мая 2018
    • 1006294|Круги дьявола|24 мая 2018|200|300Круги дьявола
      Дата выхода: 24 мая 2018
    • 842709|Садко|24 мая 2018|200|300Садко
      Дата выхода: 24 мая 2018
    • 1044310|Гупёшка|24 мая 2018|200|300Гупёшка
      Дата выхода: 24 мая 2018
    • 893681|Черновик|25 мая 2018|200|300Черновик
      Дата выхода: 25 мая 2018
    • 1138771|МУЛЬТ в кино. Выпуск 76. Лето, привет!|26 мая 2018|200|300МУЛЬТ в кино. Выпуск 76. Лето, привет!
      Дата выхода: 26 мая 2018
    • 959365|Невидимый гость|31 мая 2018|200|300Невидимый гость
      Дата выхода: 31 мая 2018
    • 762500|Красный воробей|31 мая 2018|200|300Красный воробей
      Дата выхода: 31 мая 2018
    • 843121|Как разговаривать с девушками на вечеринках|31 мая 2018|200|300Как разговаривать с девушками на вечеринках
      Дата выхода: 31 мая 2018
    • 965611|Истории призраков|31 мая 2018|200|300Истории призраков
      Дата выхода: 31 мая 2018
    • 1048530|Моя жизнь|31 мая 2018|200|300Моя жизнь
      Дата выхода: 31 мая 2018
    • 1030828|Псы под прикрытием|31 мая 2018|200|300Псы под прикрытием
      Дата выхода: 31 мая 2018
    • 927822|Два хвоста|31 мая 2018|200|300Два хвоста
      Дата выхода: 31 мая 2018
    Вверх