• Игры для PS3
  • Игры для XBOX360
  • Игры для PC
  • Игры для PS2
  • Игры для PSP
  • Для телефонов
  • Музыка
  • Книги/Журналы
  • Обои
  •  
    Опрос
    Удобен ли сайт в использовании?
      0
    • Очень удобен, все понятно1,1,false,300,full
    • Удобен1,2,false,300,full
    • Средне1,3,false,300,full
    • Неудобен, трудно ориентироваться1,4,false,300,full
    • Совсем неудобен1,5,false,300,full
    Статистика
    Загрузка...
    Колония / Colony [Сезон 03 | 01-03 серии из 13] | HDTVRip 720p
    Статус  Проверено
    В закладки
    Модератор: Max

    Колония / Colony [Сезон 03 | 01-03 серии из 13] | HDTVRip 720p [Сериалы 2018] скачать торрентом/torrent бесплатно

    Год выхода
    Категории
    Язык
    Закачал
    Max | 17 мая в 19ч 33м 35с
    Раздел
    Отзывов
    0
    Раздают: 8 Качают: 45 Скачали: 39 Размер: 3.68 GB
    Инфо о раздаче | Благодарности |
    0/5
    0
    0 5 0
    Поддержи нас — расскажи друзьям!
    Orbitum
    Новый интернет-браузер Быстрее загружает сайты Экономит интернет—трафик Меняет оформление страницы ВК Блокирует всю рекламу на сайтах Загружает торренты как

    µTorrent

    клиент
    Объеденяет все твои чаты из соц. сетей в один Проигрывает твою музыку не заходя во ВКонтакте
    Скачать и многое другое... Подробности на сайте производителя
    Информация о фильме
    Название: Колония
    Оригинальное название: Colony
    Год выпуска: 2018
    Жанр:  Фантастика
    Режиссер: Хуан Хосе Кампанелла, Нельсон МакКормик, Скотт Питерс
    В ролях: Джош Холлоуэй, Сара Уэйн Кэллис, Питер Джекобсон, Аманда Ригетти, Тори Киттлз, Алекс Нюстадтер, Изабелла Крамп, Ким Родс, Гонсало Менендес, Пол Гилфойл, Кэтлин Роуз Перкинс, Карл Уэзерс, Элли Уокер, Джейкоб Варгас, Кэтрин Моррис, Адриан Пасдар, Мэри Боннер Бэйкер

    О фильме:
    События в сериале разворачиваются в недалеком будущем. Лос-Анджелес с жителями оккупирован и находится под контролем нового правительства. Часть жителей смирилась с новым порядком и пытается наладить жизнь в новых условиях, другая часть выбрала путь повстанцев и сопротивления режиму. В центре событий Бывший агент ФБР Уилл Боумэн и его супруга Кейти. Это семья потерявшая сына во время вторжения. Уилл и Кэйт готовы сделать все необходимое, чтобы вернуть сына домой. И даже принять предложение о сотрудничестве от главы оккупационного правительства Прокси Снайдера. Соглашаясь на сотрудничество они и не могли предположить о последствиях, которые превратят их жизнь в сплошной кошмар.

    [img]https://u.myshows.me/r/43650.png[/img]


    Страна: США
    Студия: Legendary Television
    Продолжительность: 2 x ~ 00:42:00
    Перевод: Любительский многоголосый [ColdFilm]

    Файл
    Кодек: x264 (AVC)
    Качество: HDTVRip 720p
    Видео: 4000 Кбит/с, 1280x720, 29.970 fps
    Аудио: Русский (AC3, 2 ch, 192 Кбит/с)

    [img]http://s020.radikal.ru/i712/1701/ad/1bb0bd9bc94a.gif[/img]


    MI

    General
    General
    Unique ID                   : 181844512841524727961689904111850904117 (0x88CDFAB0277B54E49CE98BB8B6B85A35)
    Complete name               : Colony.S03E01.720p.ColdFilm.mkv
    Format                      : Matroska
    Format version              : Version 2
    File size                   : 1.21 GiB
    Duration                    : 41 min 35 s
    Overall bit rate            : 4 152 kb/s
    Encoded date                : UTC 2018-05-03 10:30:55 / UTC 2018-04-03 13:04:59
    Writing application         : mkvmerge v3.3.0 ("Language") built on Mar 24 2010 14:59:24
    Writing library             : libebml v0.8.0 + libmatroska v0.9.0 / Lavf54.63.104

    Video
    ID                          : 1
    Format                      : AVC
    Format/Info                 : Advanced Video Codec
    Format profile              : Main@L3.1
    Format settings             : CABAC / 1 Ref Frames
    Format settings, CABAC      : Yes
    Format settings, ReFrames   : 1 frame
    Codec ID                    : V_MPEG4/ISO/AVC
    Duration                    : 41 min 35 s
    Bit rate                    : 4 000 kb/s
    Width                       : 1 280 pixels
    Height                      : 720 pixels
    Display aspect ratio        : 16:9
    Frame rate mode             : Constant
    Frame rate                  : 29.970 (30000/1001) FPS
    Color space                 : YUV
    Chroma subsampling          : 4:2:0
    Bit depth                   : 8 bits
    Scan type                   : Progressive
    Bits/(Pixel*Frame)          : 0.145
    Stream size                 : 1.13 GiB (93%)
    Writing library             : x264 core 129
    Default                     : No
    Forced                      : No

    Audio
    ID                          : 2
    Format                      : AC-3
    Format/Info                 : Audio Coding 3
    Codec ID                    : A_AC3
    Duration                    : 41 min 35 s
    Bit rate mode               : Constant
    Bit rate                    : 192 kb/s
    Channel(s)                  : 2 channels
    Channel positions           : Front: L R
    Sampling rate               : 48.0 kHz
    Frame rate                  : 31.250 FPS (1536 SPF)
    Bit depth                   : 16 bits
    Compression mode            : Lossy
    Stream size                 : 57.1 MiB (5%)
    Service kind                : Complete Main
    Default                     : Yes
    Forced                      : No

    Еще похожие »

    Как скачать?
    1. Качаем UTorrent версии 2.0 и выше отсюда
    2. После установки, жмем на ссылку Скачать торрент.
    3. Открываем его через utorrent.
    4. Ждем пока подключатся участники.
    5. Качаем.


    Комментарии о Колония / Colony [Сезон 03 | 01-03 серии из 13] | HDTVRip 720p
    Добавлять комментарии могут только зарегистрированные пользователи

    Зарегистрироваться или Войти


    Ближайшее в кино
    • Хан Соло: Звёздные Войны. Истории дата выхода 24 мая 2018Хан Соло: Звёздные Войны. Истории
      Дата выхода: 24 мая 2018
    • 719155|Секса не будет!!!|24 мая 2018|200|300Секса не будет!!!
      Дата выхода: 24 мая 2018
    • 912012|Распрекрасный принц|24 мая 2018|200|300Распрекрасный принц
      Дата выхода: 24 мая 2018
    • 1006294|Круги дьявола|24 мая 2018|200|300Круги дьявола
      Дата выхода: 24 мая 2018
    • 842709|Садко|24 мая 2018|200|300Садко
      Дата выхода: 24 мая 2018
    • 1044310|Гупёшка|24 мая 2018|200|300Гупёшка
      Дата выхода: 24 мая 2018
    • 893681|Черновик|25 мая 2018|200|300Черновик
      Дата выхода: 25 мая 2018
    • 1138771|МУЛЬТ в кино. Выпуск 76. Лето, привет!|26 мая 2018|200|300МУЛЬТ в кино. Выпуск 76. Лето, привет!
      Дата выхода: 26 мая 2018
    • 959365|Невидимый гость|31 мая 2018|200|300Невидимый гость
      Дата выхода: 31 мая 2018
    • 762500|Красный воробей|31 мая 2018|200|300Красный воробей
      Дата выхода: 31 мая 2018
    • 843121|Как разговаривать с девушками на вечеринках|31 мая 2018|200|300Как разговаривать с девушками на вечеринках
      Дата выхода: 31 мая 2018
    • 965611|Истории призраков|31 мая 2018|200|300Истории призраков
      Дата выхода: 31 мая 2018
    • 1048530|Моя жизнь|31 мая 2018|200|300Моя жизнь
      Дата выхода: 31 мая 2018
    • 1030828|Псы под прикрытием|31 мая 2018|200|300Псы под прикрытием
      Дата выхода: 31 мая 2018
    • 927822|Два хвоста|31 мая 2018|200|300Два хвоста
      Дата выхода: 31 мая 2018
    Вверх