• Игры для PS4
  • Игры для PS3
  • Игры для XBOX360
  • Игры для PC
  • Игры для PS2
  • Игры для PSP
  • Для телефонов
  • Музыка
  • Книги / Журналы
  • Обои
  • Опрос
    Удобен ли сайт в использовании?
      0
    • Очень удобен, все понятно1,1,false,300,full
    • Удобен1,2,false,300,full
    • Средне1,3,false,300,full
    • Неудобен, трудно ориентироваться1,4,false,300,full
    • Совсем неудобен1,5,false,300,full
    Статистика
    Всего онлайн -
    Гостей -
    Пользователей -
    Короли трекера
    
    Благодарности () Закрыть
    Быстрее загружает сайты Экономит интернет—трафик Меняет оформление страницы ВК Блокирует всю рекламу на сайтах Загружает торренты как µTorrent клиент Объеденяет все твои чаты из соц. сетей в один Проигрывает твою музыку не заходя во ВКонтакте
    Новый интернет-браузер
    Оrbitum
    Скачать
    и многое другое... Подробности на сайте производителя
    Исполнитель/Группа: Юля Шереметьева и группа Леди
    Жанр:  POP
    Год выпуска: 2018
    Продолжительность: 00:06:35

    Леди
    Юля Шереметьева-вокал
    Сергей Ворожбит-руководитель, гитара соло (экс гр.Кристина)
    Мария Григуц-клавишные

    Авторы песен : Олег Пахомов (1), Евгений Войнов (2)


    Группа Кристина (Сергей Воронков, Сергей Ворожбит)

    Формат: MKV
    Качество: CAMRip
    Видео кодек: H.264
    Аудио кодек: AAC
    Видео: H.264, ~1 650 Kbps, 1024 x 576 (16:9), 25 fps
    Аудио: AAC, 48000Hz, 2ch, 192 kbps
    Треклист
    1.Лети
    2.Свежий ветерСвернуть


    MedaInfo
    Lady_24.04.18.mkv
    Format                                   : Matroska
    Format version                           : Version 4 / Version 2
    File size                                : 86.5 MiB
    Duration                                 : 6 min 35 s
    Overall bit rate                         : 1 832 kb/s
    Encoded date                             : UTC 2018-05-17 10:07:16
    Writing application                      : mkvmerge v21.0.0 ("Tardigrades Will Inherit The Earth") 64-bit
    Writing library                          : libebml v1.3.5 + libmatroska v1.4.8

    Video
    ID                                       : 1
    Format                                   : AVC
    Format/Info                              : Advanced Video Codec
    Format profile                           : High@L3.1
    Format settings                          : CABAC / 4 Ref Frames
    Format settings, CABAC                   : Yes
    Format settings, ReFrames                : 4 frames
    Codec ID                                 : V_MPEG4/ISO/AVC
    Duration                                 : 6 min 35 s
    Bit rate                                 : 1 630 kb/s
    Width                                    : 1 024 pixels
    Height                                   : 576 pixels
    Display aspect ratio                     : 16:9
    Frame rate mode                          : Constant
    Frame rate                               : 25.000 FPS
    Color space                              : YUV
    Chroma subsampling                       : 4:2:0
    Bit depth                                : 8 bits
    Scan type                                : Progressive
    Bits/(Pixel*Frame)                       : 0.111
    Stream size                              : 76.9 MiB (89%)
    Writing library                          : x264 core 148
    Encoding settings                        : cabac=1 / ref=2 / deblock=1:0:0 / analyse=0x3:0x113 / me=hex / subme=4 / psy=1 / psy_rd=1,00:0,00 / mixed_ref=0 / me_range=16 / chroma_me=1 / trellis=1 / 8x8dct=1 / cqm=0 / deadzone=21,11 / fast_pskip=1 / chroma_qp_offset=0 / threads=6 / lookahead_threads=1 / sliced_threads=0 / nr=0 / decimate=1 / interlaced=0 / bluray_compat=0 / constrained_intra=0 / bframes=3 / b_pyramid=2 / b_adapt=1 / b_bias=0 / direct=1 / weightb=1 / open_gop=0 / weightp=1 / keyint=120 / keyint_min=12 / scenecut=40 / intra_refresh=0 / rc_lookahead=20 / rc=crf / mbtree=1 / crf=23,0 / qcomp=0,60 / qpmin=0 / qpmax=69 / qpstep=4 / ip_ratio=1,40 / aq=1:1,00
    Default                                  : Yes
    Forced                                   : No
    Color range                              : Limited
    Transfer characteristics                 : BT.601
    Matrix coefficients                      : BT.470 System B, BT.470 System G

    Audio
    ID                                       : 2
    Format                                   : AAC
    Format/Info                              : Advanced Audio Codec
    Format profile                           : LC
    Codec ID                                 : A_AAC-2
    Duration                                 : 6 min 35 s
    Bit rate                                 : 199 kb/s
    Channel(s)                               : 2 channels
    Channel positions                        : Front: L R
    Sampling rate                            : 48.0 kHz
    Frame rate                               : 46.875 FPS (1024 SPF)
    Compression mode                         : Lossy
    Delay relative to video                  : -21 ms
    Stream size                              : 9.41 MiB (11%)
    Default                                  : Yes
    Forced                                   : NoСвернуть


    Похожие раздачи Искать похожие
    Инструкция по скачиванию
     1  Качаем uTorrent версии 2.0 и выше
     2  После установки, жмем выше под постером на ссылку Скачать [MediaGet] или Скачать .torrent
     3  Открываем скачанный файл через соответствующий клиент: MediaGet или uTorrent
     4  Ждем пока подключатся участники
     5  Качаем
    Комментарии о  Юля Шереметьева и группа Леди - Выступление на конкурсе Мисс Великая Россия [24.04] 
    Ближайшее в кино
    Вверх