• Игры для PS4
  • Игры для PS3
  • Игры для XBOX360
  • Игры для PC
  • Игры для PS2
  • Игры для PSP
  • Для телефонов
  • Музыка
  • Книги / Журналы
  • Обои
  • Опрос
    Удобен ли сайт в использовании?
      0
    • Очень удобен, все понятно1,1,false,300,full
    • Удобен1,2,false,300,full
    • Средне1,3,false,300,full
    • Неудобен, трудно ориентироваться1,4,false,300,full
    • Совсем неудобен1,5,false,300,full
    Статистика
    Всего онлайн -
    Гостей -
    Пользователей -
    Короли трекера
    
    Благодарности () Закрыть
    Быстрее загружает сайты Экономит интернет—трафик Меняет оформление страницы ВК Блокирует всю рекламу на сайтах Загружает торренты как µTorrent клиент Объеденяет все твои чаты из соц. сетей в один Проигрывает твою музыку не заходя во ВКонтакте
    Новый интернет-браузер
    Оrbitum
    Скачать
    и многое другое... Подробности на сайте производителя
    Информация о фильме
    Название: Криптон
    Оригинальное название: Krypton
    Год выпуска: 2018
    Жанр:  Фантастика, боевик, драма, приключения
    Режиссер: Киаран Доннелли
    В ролях: Камерон Каффе, Джорджина Кэмпбелл, Йен МакЭлхинни, Эллиот Кауэн, Энн Огбомо, Расмус Хардайкер, Уоллис Дэй, Аарон Пьер, Гордон Александр, Una Carroll

    О фильме:
    В центре фантастического сериала — события, происходившие на родной планете мальчика с необычными способностями, который стал Суперменом. Действие разворачивается за несколько десятилетий до гибели планеты. Дед Супермена, всю жизнь веривший в равенство всех жителей планеты Криптон, решает вести непримиримую борьбу с беспорядками и очистить славное имя Элов…

    [img]https://u.myshows.me/r/48013.png[/img]
    Страна: США
    Студия: DC Entertainment, Phantom Four, Warner Horizon Television
    Продолжительность: 7 ~ 00:43:00
    Перевод: Любительский многоголосый [ColdFilm]

    Файл
    Кодек: x.264 (AVC)
    Качество: HDTVRip 720p
    Видео: 4000 Кбит/с, 1280x720, 25.000 fps
    Аудио: Русский (AC3, 2 ch, 192 Кбит/с)

    [img]http://s020.radikal.ru/i712/1701/ad/1bb0bd9bc94a.gif[/img]



    MI
    General
    Unique ID                   : 238832061793132667631561887155472356733 (0xB3AD61C764120987B337AA23A024D57D)
    Complete name               : D:Krypton.S01E01.720p.ColdFilm.mkv
    Format                      : Matroska
    Format version              : Version 2
    File size                   : 1.26 GiB
    Duration                    : 43 min 7 s
    Overall bit rate            : 4 199 kb/s
    Encoded date                : UTC 2018-03-22 10:35:29 / UTC 2017-11-20 18:25:40
    Writing application         : mkvmerge v3.3.0 ("Language") built on Mar 24 2010 14:59:24
    Writing library             : libebml v0.8.0 + libmatroska v0.9.0 / Lavf54.63.104

    Video
    ID                          : 1
    Format                      : AVC
    Format/Info                 : Advanced Video Codec
    Format profile              : Main@L3.1
    Format settings             : CABAC / 1 Ref Frames
    Format settings, CABAC      : Yes
    Format settings, ReFrames   : 1 frame
    Codec ID                    : V_MPEG4/ISO/AVC
    Duration                    : 43 min 7 s
    Bit rate                    : 4 000 kb/s
    Width                       : 1 280 pixels
    Height                      : 720 pixels
    Display aspect ratio        : 16:9
    Frame rate mode             : Constant
    Frame rate                  : 25.000 FPS
    Color space                 : YUV
    Chroma subsampling          : 4:2:0
    Bit depth                   : 8 bits
    Scan type                   : Progressive
    Bits/(Pixel*Frame)          : 0.174
    Stream size                 : 1.18 GiB (93%)
    Writing library             : x264 core 129
    Encoding settings           : cabac=1 / ref=1 / deblock=1:0:0 / analyse=0x1:0x131 / me=dia / subme=2 / psy=1 / psy_rd=1.00:0.00 / mixed_ref=0 / me_range=16 / chroma_me=1 / trellis=0 / 8x8dct=0 / cqm=0 / deadzone=21,11 / fast_pskip=1 / chroma_qp_offset=0 / threads=4 / lookahead_threads=1 / sliced_threads=0 / nr=0 / decimate=1 / interlaced=0 / bluray_compat=0 / constrained_intra=0 / bframes=0 / weightp=2 / keyint=250 / keyint_min=25 / scenecut=40 / intra_refresh=0 / rc_lookahead=40 / rc=abr / mbtree=1 / bitrate=4000 / ratetol=1.0 / qcomp=0.60 / qpmin=10 / qpmax=51 / qpstep=4 / ip_ratio=1.41 / aq=1:1.00
    Default                     : No
    Forced                      : No

    Audio
    ID                          : 2
    Format                      : AC-3
    Format/Info                 : Audio Coding 3
    Codec ID                    : A_AC3
    Duration                    : 43 min 7 s
    Bit rate mode               : Constant
    Bit rate                    : 192 kb/s
    Channel(s)                  : 2 channels
    Channel positions           : Front: L R
    Sampling rate               : 48.0 kHz
    Frame rate                  : 31.250 FPS (1536 SPF)
    Bit depth                   : 16 bits
    Compression mode            : Lossy
    Stream size                 : 59.2 MiB (5%)
    Service kind                : Complete Main
    Default                     : Yes
    Forced                      : No

    Свернуть
    Инструкция по скачиванию
     1  Качаем uTorrent версии 2.0 и выше
     2  После установки, жмем выше под постером на ссылку Скачать [MediaGet] или Скачать .torrent
     3  Открываем скачанный файл через соответствующий клиент: MediaGet или uTorrent
     4  Ждем пока подключатся участники
     5  Качаем
    Комментарии о  Криптон / Krypton [Сезон 01 | 01-09 серии из 10] | HDTVRip 720p 
    Ближайшее в кино
    Вверх