• Игры для PS3
  • Игры для XBOX360
  • Игры для PC
  • Игры для PS2
  • Игры для PSP
  • Для телефонов
  • Музыка
  • Книги/Журналы
  • Обои
  •  
    Опрос
    Удобен ли сайт в использовании?
      0
    • Очень удобен, все понятно1,1,false,300,full
    • Удобен1,2,false,300,full
    • Средне1,3,false,300,full
    • Неудобен, трудно ориентироваться1,4,false,300,full
    • Совсем неудобен1,5,false,300,full
    Статистика
    Загрузка...
    Темные времена / Darkest Hour | BDRip 1080p
    Статус  Проверено
    В закладки
    Модератор: Max

    Темные времена / Darkest Hour | BDRip 1080p [Фильмы 2017] скачать торрентом/torrent бесплатно

    Год выхода
    Язык
    Закачал
    Аноним | 17 мая в 19ч 41м 57с
    Раздел
    Отзывов
    0
    Раздают: 79 Качают: 101 Скачали: 123 Размер: 14.32 GB
    Инфо о раздаче | Благодарности |
    0/5
    0
    0 5 0
    Поддержи нас — расскажи друзьям!
    Orbitum
    Новый интернет-браузер Быстрее загружает сайты Экономит интернет—трафик Меняет оформление страницы ВК Блокирует всю рекламу на сайтах Загружает торренты как

    µTorrent

    клиент
    Объеденяет все твои чаты из соц. сетей в один Проигрывает твою музыку не заходя во ВКонтакте
    Скачать и многое другое... Подробности на сайте производителя
    Информация о фильме
    Название: Темные времена
    Оригинальное название: Darkest Hour
    Год выхода: 2017
    Жанр: Драма, военный, биография, история
    Режиссер: Джо Райт
    В ролях: Лили Джеймс, Гэри Олдман, Бен Мендельсон, Кристин Скотт Томас, Стивен Диллэйн, Сэмюэл Уэст, Ханна Стил, Рональд Пикап, Анна Барнетт, Николас Джонс



    О фильме:
    В самом начале Второй мировой войны Британия сталкивается с угрозой вторжения немцев в их страну. Нацисты продвигаются все дальше, армия союзников оказывается загнана в угол на пляжах Дюнкерка, судьба Западной Европы зависит от того, какие действия примет недавно назначенный премьер-министром Великобритании Уинстон Черчилль. Ему предстоит сделать нелегкий выбор: вступить в переговоры с Гитлером и заключить соглашение, чтобы спасти граждан страны, или же попытаться сплотить нацию и дать отпор захватчикам, невзирая на призрачные шансы на успех.

    Страна: Великобритания
    Студия: Working Title Films
    Продолжительность: 02:04:54
    Перевод: Дублированный | Лицензия

    Качество: BDRip 1080p
    Видео: MPEG-4 AVC, 1920x1038, 15.1 Mbit/s, 23.976 fps
    Звук:
    Аудио #01: 48 kHz, AC3, 5.1, 640 Kbps | Дублированный | RUS |[img]http://lostpix.com/img/2016-04/26/ecarul7mj2gcrjkf30af8u4tk.gif[/img]
    Аудио #02: 48 kHz, AC3, 5.1, 640 Kbps | Оригинал |  ENG |[img]http://lostpix.com/img/2016-09/30/0icucyo5gq0qmwlibabcgmhiw.gif[/img]
    Субтитры: Русские (forced, full), английские

    [img]http://lostpix.com/img/2018-03/14/0o0c8ga1iagdsbyqbt3j687hs.png[/img][img]http://lostpix.com/img/2018-03/14/acu1iufhwcow3wx0zfa25r3nk.png[/img][img]http://lostpix.com/img/2018-03/14/odz83bwi2c3b0iqyzybs1zaql.png[/img][img]http://lostpix.com/img/2018-03/14/g8rdo7ge4e751fw48x4gds63t.png[/img][img]http://lostpix.com/img/2018-03/14/3tl0kyo3768lcr935ebs0e8h2.png[/img]

    MI
    General
    Unique ID                   : 174446396081500701234745046283431109690 (0x833D275ECE6BD6349F0258BA32AAE43A)
    Complete name               : C:Video111Darkest.Hour.2017.Lic.BDRip.1080p.ExKinoRay.mkv
    Format                      : Matroska
    Format version              : Version 4 / Version 2
    File size                   : 14.3 GiB
    Duration                    : 2 h 4 min
    Overall bit rate            : 16.4 Mb/s
    Movie name                  : Darkest Hour 2017 from ExKinoRay
    Encoded date                : UTC 2018-05-17 12:56:42
    Writing application         : mkvmerge v7.3.0 ("Nouages") 64bit built on Oct 22 2014 18:53:34
    Writing library             : libebml v1.3.0 + libmatroska v1.4.1

    Video
    ID                          : 1
    Format                      : AVC
    Format/Info                 : Advanced Video Codec
    Format profile              : High@L4.1
    Format settings             : CABAC / 4 Ref Frames
    Format settings, CABAC      : Yes
    Format settings, ReFrames   : 4 frames
    Codec ID                    : V_MPEG4/ISO/AVC
    Duration                    : 2 h 4 min
    Bit rate                    : 15.1 Mb/s
    Width                       : 1 920 pixels
    Height                      : 1 038 pixels
    Display aspect ratio        : 1.85:1
    Frame rate mode             : Constant
    Frame rate                  : 23.976 (24000/1001) FPS
    Color space                 : YUV
    Chroma subsampling          : 4:2:0
    Bit depth                   : 8 bits
    Scan type                   : Progressive
    Bits/(Pixel*Frame)          : 0.317
    Stream size                 : 13.2 GiB (92%)
    Writing library             : x264 core 124 r2197+666+28 3970b70 tMod+MixAQ [8-bit@4:2:0 X86]
    Encoding settings           : cabac=1 / ref=4 / deblock=1:-3:-3 / analyse=0x3:0x133 / me=umh / subme=11 / psy=1 / fade_compensate=0.00 / psy_rd=1.10:0.10 / mixed_ref=1 / me_range=64 / chroma_me=1 / trellis=2 / 8x8dct=1 / cqm=0 / deadzone=21,11 / fast_pskip=0 / chroma_qp_offset=-3 / threads=18 / sliced_threads=0 / nr=0 / decimate=0 / interlaced=0 / bluray_compat=0 / constrained_intra=0 / fgo=0 / bframes=12 / b_pyramid=2 / b_adapt=2 / b_bias=0 / direct=3 / weightb=1 / open_gop=0 / weightp=2 / keyint=250 / keyint_min=23 / scenecut=40 / intra_refresh=0 / rc=crf / mbtree=0 / crf=16.5000 / qcomp=0.80 / qpmin=0 / qpmax=69 / qpstep=4 / ip_ratio=1.30 / pb_ratio=1.20 / aq=1 / aq-strength=0.80 / aq-sensitivity=10.00 / aq-ifactor=1.00 / aq-pfactor=1.00 / aq-bfactor=1.00 / aq2=0 / zones=55,313,crf=12/336,477,crf=12/8397,9100,crf=14/11060,11090,crf=14/22208,22325,crf=13/23009,24046,crf=13/55712,56130,crf=13/64090,64339,crf=13/64385,65053,crf=13/67101,67542,crf=13/86885,87000,crf=13/87691,87796,crf=13/171187,178283,crf=25
    Language                    : English
    Default                     : Yes
    Forced                      : No

    Audio #1
    ID                          : 2
    Format                      : AC-3
    Format/Info                 : Audio Coding 3
    Codec ID                    : A_AC3
    Duration                    : 2 h 4 min
    Bit rate mode               : Constant
    Bit rate                    : 640 kb/s
    Channel(s)                  : 6 channels
    Channel positions           : Front: L C R, Side: L R, LFE
    Sampling rate               : 48.0 kHz
    Frame rate                  : 31.250 FPS (1536 SPF)
    Bit depth                   : 16 bits
    Compression mode            : Lossy
    Stream size                 : 571 MiB (4%)
    Title                       : Dub [License]
    Language                    : Russian
    Service kind                : Complete Main
    Default                     : Yes
    Forced                      : Yes

    Audio #2
    ID                          : 3
    Format                      : AC-3
    Format/Info                 : Audio Coding 3
    Codec ID                    : A_AC3
    Duration                    : 2 h 4 min
    Bit rate mode               : Constant
    Bit rate                    : 640 kb/s
    Channel(s)                  : 6 channels
    Channel positions           : Front: L C R, Side: L R, LFE
    Sampling rate               : 48.0 kHz
    Frame rate                  : 31.250 FPS (1536 SPF)
    Bit depth                   : 16 bits
    Compression mode            : Lossy
    Stream size                 : 572 MiB (4%)
    Title                       : Original
    Language                    : English
    Service kind                : Complete Main
    Default                     : No
    Forced                      : No

    Text #1
    ID                          : 4
    Format                      : UTF-8
    Codec ID                    : S_TEXT/UTF8
    Codec ID/Info               : UTF-8 Plain Text
    Duration                    : 1 h 58 min
    Bit rate                    : 1 b/s
    Count of elements           : 19
    Stream size                 : 1.64 KiB (0%)
    Title                       : Forced
    Language                    : Russian
    Default                     : Yes
    Forced                      : Yes

    Text #2
    ID                          : 5
    Format                      : UTF-8
    Codec ID                    : S_TEXT/UTF8
    Codec ID/Info               : UTF-8 Plain Text
    Duration                    : 1 h 59 min
    Bit rate                    : 105 b/s
    Count of elements           : 1680
    Stream size                 : 91.6 KiB (0%)
    Title                       : Full [focs]
    Language                    : Russian
    Default                     : No
    Forced                      : No

    Text #3
    ID                          : 6
    Format                      : UTF-8
    Codec ID                    : S_TEXT/UTF8
    Codec ID/Info               : UTF-8 Plain Text
    Duration                    : 1 h 59 min
    Bit rate                    : 111 b/s
    Count of elements           : 1795
    Stream size                 : 97.8 KiB (0%)
    Title                       : Full [Leonid55]
    Language                    : Russian
    Default                     : No
    Forced                      : No

    Text #4
    ID                          : 7
    Format                      : UTF-8
    Codec ID                    : S_TEXT/UTF8
    Codec ID/Info               : UTF-8 Plain Text
    Duration                    : 1 h 57 min
    Bit rate                    : 56 b/s
    Count of elements           : 1759
    Stream size                 : 48.4 KiB (0%)
    Title                       : Full
    Language                    : English
    Default                     : No
    Forced                      : No

    Text #5
    ID                          : 8
    Format                      : UTF-8
    Codec ID                    : S_TEXT/UTF8
    Codec ID/Info               : UTF-8 Plain Text
    Duration                    : 1 h 57 min
    Bit rate                    : 58 b/s
    Count of elements           : 1805
    Stream size                 : 49.8 KiB (0%)
    Title                       : SDH
    Language                    : English
    Default                     : No
    Forced                      : No

    Text #6
    ID                          : 9
    Format                      : UTF-8
    Codec ID                    : S_TEXT/UTF8
    Codec ID/Info               : UTF-8 Plain Text
    Duration                    : 1 h 57 min
    Bit rate                    : 68 b/s
    Count of elements           : 1814
    Stream size                 : 58.4 KiB (0%)
    Title                       : SDH Colored
    Language                    : English
    Default                     : No
    Forced                      : No

    Menu
    00:00:00.000                : en:00:00:00.000
    00:05:20.028                : en:00:05:20.028
    00:10:17.951                : en:00:10:17.951
    00:13:59.589                : en:00:13:59.589
    00:22:33.060                : en:00:22:33.060
    00:29:23.178                : en:00:29:23.178
    00:37:09.519                : en:00:37:09.519
    00:41:04.587                : en:00:41:04.587
    00:48:26.904                : en:00:48:26.904
    00:56:16.498                : en:00:56:16.498
    01:02:38.463                : en:01:02:38.463
    01:10:57.003                : en:01:10:57.003
    01:18:41.467                : en:01:18:41.467
    01:24:05.791                : en:01:24:05.791
    01:30:25.629                : en:01:30:25.629
    01:35:58.753                : en:01:35:58.753
    01:39:33.968                : en:01:39:33.968
    01:45:20.105                : en:01:45:20.105
    01:52:55.227                : en:01:52:55.227
    01:59:45.011                : en:01:59:45.011


    Подпишись на меня, кликни по картинке > : [img]http://img12.lostpic.net/2018/03/09/13af6981458d1d0b6a9d5e5286e0688e.gif[/img]

    [img]http://lostpix.com/img/2017-03/22/pa3kns75lpl0e564ik1il8ow9.gif[/img]
    Еще похожие »

    Как скачать?
    1. Качаем UTorrent версии 2.0 и выше отсюда
    2. После установки, жмем на ссылку Скачать торрент.
    3. Открываем его через utorrent.
    4. Ждем пока подключатся участники.
    5. Качаем.


    Комментарии о Темные времена / Darkest Hour | BDRip 1080p
    Добавлять комментарии могут только зарегистрированные пользователи

    Зарегистрироваться или Войти


    Ближайшее в кино
    • Хан Соло: Звёздные Войны. Истории дата выхода 24 мая 2018Хан Соло: Звёздные Войны. Истории
      Дата выхода: 24 мая 2018
    • 719155|Секса не будет!!!|24 мая 2018|200|300Секса не будет!!!
      Дата выхода: 24 мая 2018
    • 912012|Распрекрасный принц|24 мая 2018|200|300Распрекрасный принц
      Дата выхода: 24 мая 2018
    • 1006294|Круги дьявола|24 мая 2018|200|300Круги дьявола
      Дата выхода: 24 мая 2018
    • 842709|Садко|24 мая 2018|200|300Садко
      Дата выхода: 24 мая 2018
    • 1044310|Гупёшка|24 мая 2018|200|300Гупёшка
      Дата выхода: 24 мая 2018
    • 893681|Черновик|25 мая 2018|200|300Черновик
      Дата выхода: 25 мая 2018
    • 1138771|МУЛЬТ в кино. Выпуск 76. Лето, привет!|26 мая 2018|200|300МУЛЬТ в кино. Выпуск 76. Лето, привет!
      Дата выхода: 26 мая 2018
    • 959365|Невидимый гость|31 мая 2018|200|300Невидимый гость
      Дата выхода: 31 мая 2018
    • 762500|Красный воробей|31 мая 2018|200|300Красный воробей
      Дата выхода: 31 мая 2018
    • 843121|Как разговаривать с девушками на вечеринках|31 мая 2018|200|300Как разговаривать с девушками на вечеринках
      Дата выхода: 31 мая 2018
    • 965611|Истории призраков|31 мая 2018|200|300Истории призраков
      Дата выхода: 31 мая 2018
    • 1048530|Моя жизнь|31 мая 2018|200|300Моя жизнь
      Дата выхода: 31 мая 2018
    • 1030828|Псы под прикрытием|31 мая 2018|200|300Псы под прикрытием
      Дата выхода: 31 мая 2018
    • 927822|Два хвоста|31 мая 2018|200|300Два хвоста
      Дата выхода: 31 мая 2018
    Вверх