• Игры для PS4
  • Игры для PS3
  • Игры для XBOX360
  • Игры для PC
  • Игры для PS2
  • Игры для PSP
  • Для телефонов
  • Музыка
  • Книги / Журналы
  • Обои
  • Опрос
    Откуда Вы о нас узнали?
      0
    • От знакомых2,1,false,300,full
    • Из социальных сетей2,2,false,300,full
    • Из поисковых систем2,3,false,300,full
    • Другое2,4,false,300,full
    Статистика
    Всего онлайн -
    Гостей -
    Пользователей -
    Короли трекера
    
    Благодарности () Закрыть
    Быстрее загружает сайты Экономит интернет—трафик Меняет оформление страницы ВК Блокирует всю рекламу на сайтах Загружает торренты как µTorrent клиент Объеденяет все твои чаты из соц. сетей в один Проигрывает твою музыку не заходя во ВКонтакте
    Новый интернет-браузер
    Оrbitum
    Скачать
    и многое другое... Подробности на сайте производителя
    Информация о фильме
    Название: Темные времена
    Оригинальное название: Darkest Hour
    Год выхода: 2017
    Жанр: Драма, военный, биография, история
    Режиссер: Джо Райт
    В ролях: Лили Джеймс, Гэри Олдман, Бен Мендельсон, Кристин Скотт Томас, Стивен Диллэйн, Сэмюэл Уэст, Ханна Стил, Рональд Пикап, Анна Барнетт, Николас Джонс



    О фильме:
    В самом начале Второй мировой войны Британия сталкивается с угрозой вторжения немцев в их страну. Нацисты продвигаются все дальше, армия союзников оказывается загнана в угол на пляжах Дюнкерка, судьба Западной Европы зависит от того, какие действия примет недавно назначенный премьер-министром Великобритании Уинстон Черчилль. Ему предстоит сделать нелегкий выбор: вступить в переговоры с Гитлером и заключить соглашение, чтобы спасти граждан страны, или же попытаться сплотить нацию и дать отпор захватчикам, невзирая на призрачные шансы на успех.

    Страна: Великобритания
    Студия: Working Title Films
    Продолжительность: 02:04:54
    Перевод: Дублированный | Лицензия

    Качество: BDRemux 1080p
    Видео: MPEG-4 AVC, 1920x1080, 31.4 Mbit/s, 23.976 fps
    Звук:
    Аудио #01: 48 kHz, AC3, 5.1, 640 Kbps | Дублированный | RUS |[img]http://lostpix.com/img/2016-04/26/ecarul7mj2gcrjkf30af8u4tk.gif[/img]
    Аудио #02: 48 kHz, TrueHD, 7.1, 4218 Kbps | Оригинал |  ENG |[img]http://lostpix.com/img/2016-09/30/0icucyo5gq0qmwlibabcgmhiw.gif[/img]
    Аудио #03: 48 kHz, AC3, 5.1, 640 Kbps | Оригинал |  ENG |[img]http://lostpix.com/img/2016-09/30/0icucyo5gq0qmwlibabcgmhiw.gif[/img]
    Субтитры: Русские (forced, full), английские

    [img]http://lostpix.com/img/2018-03/14/ud0h1n91pkd1d9pkthgv5w1u8.png[/img][img]http://lostpix.com/img/2018-03/14/1k951s8zseq7dglokcrir3y9n.png[/img][img]http://lostpix.com/img/2018-03/14/otio0uv8czm97q2anw2sivq7o.png[/img][img]http://lostpix.com/img/2018-03/14/wa8s3q7lylj8ilwujsbsoxj76.png[/img][img]http://lostpix.com/img/2018-03/14/rowsz2hb042gklvav4n2w35g4.png[/img]

    MI
    General
    Unique ID                   : 3107192316596243934629009988579407371 (0x2566C68B2722464663EF5FEBE2AB60B)
    Complete name               : C:Video111Darkest.Hour.2017.Lic.BDREMUX.1080p.ExKinoRay.mkv
    Format                      : Matroska
    Format version              : Version 4 / Version 2
    File size                   : 32.2 GiB
    Duration                    : 2 h 4 min
    Overall bit rate mode       : Variable
    Overall bit rate            : 37.0 Mb/s
    Movie name                  : Darkest Hour 2017 from ExKinoRay
    Encoded date                : UTC 2018-05-17 13:21:58
    Writing application         : mkvmerge v22.0.0 ("At The End Of The World") 64-bit
    Writing library             : libebml v1.3.5 + libmatroska v1.4.8

    Video
    ID                          : 1
    Format                      : AVC
    Format/Info                 : Advanced Video Codec
    Format profile              : High@L4.1
    Format settings             : CABAC / 4 Ref Frames
    Format settings, CABAC      : Yes
    Format settings, ReFrames   : 4 frames
    Codec ID                    : V_MPEG4/ISO/AVC
    Duration                    : 2 h 4 min
    Bit rate mode               : Variable
    Bit rate                    : 31.4 Mb/s
    Maximum bit rate            : 34.0 Mb/s
    Width                       : 1 920 pixels
    Height                      : 1 080 pixels
    Display aspect ratio        : 16:9
    Frame rate mode             : Constant
    Frame rate                  : 23.976 (24000/1001) FPS
    Color space                 : YUV
    Chroma subsampling          : 4:2:0
    Bit depth                   : 8 bits
    Scan type                   : Progressive
    Bits/(Pixel*Frame)          : 0.631
    Stream size                 : 27.4 GiB (85%)
    Language                    : English
    Default                     : Yes
    Forced                      : No

    Audio #1
    ID                          : 2
    Format                      : AC-3
    Format/Info                 : Audio Coding 3
    Codec ID                    : A_AC3
    Duration                    : 2 h 4 min
    Bit rate mode               : Constant
    Bit rate                    : 640 kb/s
    Channel(s)                  : 6 channels
    Channel positions           : Front: L C R, Side: L R, LFE
    Sampling rate               : 48.0 kHz
    Frame rate                  : 31.250 FPS (1536 SPF)
    Bit depth                   : 16 bits
    Compression mode            : Lossy
    Stream size                 : 571 MiB (2%)
    Title                       : Dub [License]
    Language                    : Russian
    Service kind                : Complete Main
    Default                     : Yes
    Forced                      : Yes

    Audio #2
    ID                          : 3
    Format                      : TrueHD
    Format profile              : TrueHD+Atmos / TrueHD
    Codec ID                    : A_TRUEHD
    Duration                    : 2 h 4 min
    Bit rate mode               : Variable
    Bit rate                    : 4 218 kb/s
    Maximum bit rate            : 6 609 kb/s
    Channel(s)                  : Object Based / 8 channels
    Channel positions           : Object Based / Front: L C R, Side: L R, Back: L R, LFE
    Sampling rate               :  / 48.0 kHz
    Frame rate                  : 1 200.000 FPS (40 SPF)
    Compression mode            : Lossless
    Stream size                 : 3.68 GiB (11%)
    Title                       : Original
    Language                    : English
    Default                     : No
    Forced                      : No

    Audio #3
    ID                          : 4
    Format                      : AC-3
    Format/Info                 : Audio Coding 3
    Codec ID                    : A_AC3
    Duration                    : 2 h 4 min
    Bit rate mode               : Constant
    Bit rate                    : 640 kb/s
    Channel(s)                  : 6 channels
    Channel positions           : Front: L C R, Side: L R, LFE
    Sampling rate               : 48.0 kHz
    Frame rate                  : 31.250 FPS (1536 SPF)
    Bit depth                   : 16 bits
    Compression mode            : Lossy
    Stream size                 : 572 MiB (2%)
    Language                    : English
    Service kind                : Complete Main
    Default                     : No
    Forced                      : No

    Text #1
    ID                          : 5
    Format                      : UTF-8
    Codec ID                    : S_TEXT/UTF8
    Codec ID/Info               : UTF-8 Plain Text
    Duration                    : 1 h 58 min
    Bit rate                    : 1 b/s
    Count of elements           : 19
    Stream size                 : 1.64 KiB (0%)
    Title                       : Forced
    Language                    : Russian
    Default                     : Yes
    Forced                      : Yes

    Text #2
    ID                          : 6
    Format                      : UTF-8
    Codec ID                    : S_TEXT/UTF8
    Codec ID/Info               : UTF-8 Plain Text
    Duration                    : 1 h 59 min
    Bit rate                    : 105 b/s
    Count of elements           : 1680
    Stream size                 : 91.6 KiB (0%)
    Title                       : Full [focs]
    Language                    : Russian
    Default                     : No
    Forced                      : No

    Text #3
    ID                          : 7
    Format                      : UTF-8
    Codec ID                    : S_TEXT/UTF8
    Codec ID/Info               : UTF-8 Plain Text
    Duration                    : 1 h 59 min
    Bit rate                    : 111 b/s
    Count of elements           : 1795
    Stream size                 : 97.8 KiB (0%)
    Title                       : Full [Leonid55]
    Language                    : Russian
    Default                     : No
    Forced                      : No

    Text #4
    ID                          : 8
    Format                      : UTF-8
    Codec ID                    : S_TEXT/UTF8
    Codec ID/Info               : UTF-8 Plain Text
    Duration                    : 1 h 57 min
    Bit rate                    : 56 b/s
    Count of elements           : 1759
    Stream size                 : 48.4 KiB (0%)
    Title                       : Full
    Language                    : English
    Default                     : No
    Forced                      : No

    Text #5
    ID                          : 9
    Format                      : UTF-8
    Codec ID                    : S_TEXT/UTF8
    Codec ID/Info               : UTF-8 Plain Text
    Duration                    : 1 h 57 min
    Bit rate                    : 58 b/s
    Count of elements           : 1805
    Stream size                 : 49.8 KiB (0%)
    Title                       : SDH
    Language                    : English
    Default                     : No
    Forced                      : No

    Text #6
    ID                          : 10
    Format                      : UTF-8
    Codec ID                    : S_TEXT/UTF8
    Codec ID/Info               : UTF-8 Plain Text
    Duration                    : 1 h 57 min
    Bit rate                    : 68 b/s
    Count of elements           : 1814
    Stream size                 : 58.4 KiB (0%)
    Title                       : SDH Colored
    Language                    : English
    Default                     : No
    Forced                      : No

    Menu
    00:00:00.000                : en:00:00:00.000
    00:05:20.028                : en:00:05:20.028
    00:10:17.951                : en:00:10:17.951
    00:13:59.589                : en:00:13:59.589
    00:22:33.060                : en:00:22:33.060
    00:29:23.178                : en:00:29:23.178
    00:37:09.519                : en:00:37:09.519
    00:41:04.587                : en:00:41:04.587
    00:48:26.904                : en:00:48:26.904
    00:56:16.498                : en:00:56:16.498
    01:02:38.463                : en:01:02:38.463
    01:10:57.003                : en:01:10:57.003
    01:18:41.467                : en:01:18:41.467
    01:24:05.791                : en:01:24:05.791
    01:30:25.629                : en:01:30:25.629
    01:35:58.753                : en:01:35:58.753
    01:39:33.968                : en:01:39:33.968
    01:45:20.105                : en:01:45:20.105
    01:52:55.227                : en:01:52:55.227
    01:59:45.011                : en:01:59:45.011Свернуть


    eac3to Log
    command line: eac3to  E:FullBDDarkest.Hour.2017.1080p.Blu-ray.AVC.Atmos.TrueHD.7.1-HDChina 1) -demux -keepdialnorm
    ------------------------------------------------------------------------------
    M2TS, 1 video track, 5 audio tracks, 5 subtitle tracks, 2:04:54, 24p /1.001
    1: Chapters, 20 chapters
    2: h264/AVC, 1080p24 /1.001 (16:9)
    3: TrueHD/AC3 (Atmos), English, 7.1 channels, 48kHz
    (embedded: AC3, 5.1 channels, 640kbps, 48kHz, dialnorm: -27dB)
    4: E-AC3, Spanish, 7.1 channels, 768kbps, 48kHz, dialnorm: -27dB
    (core: AC3, 5.1 channels, 448kbps, 48kHz, dialnorm: -27dB)
    5: AC3, French, 5.1 channels, 640kbps, 48kHz, dialnorm: -27dB
    6: AC3 Surround, English, 2.0 channels, 192kbps, 48kHz, dialnorm: -27dB
    7: AC3 Surround, English, 2.0 channels, 192kbps, 48kHz, dialnorm: -27dB
    8: Subtitle (PGS), English
    9: Subtitle (PGS), Spanish
    10: Subtitle (PGS), French
    11: Subtitle (PGS), Spanish
    12: Subtitle (PGS), French
    Creating file "00800 - Chapters.txt"...
    [s11] Extracting subtitle track number 11...
    [a03] Extracting audio track number 3...
    [s09] Extracting subtitle track number 9...
    [a06] Extracting audio track number 6...
    [s10] Extracting subtitle track number 10...
    [s08] Extracting subtitle track number 8...
    [a05] Extracting audio track number 5...
    [a04] Extracting audio track number 4...
    [v02] Extracting video track number 2...
    [a07] Extracting audio track number 7...
    [s12] Extracting subtitle track number 12...
    [v02] Creating file "00800 - 2 - h264, 1080p24.h264"...
    [a03] Creating file "00800 - 3 - TrueHD+AC3 (Atmos), English, 7.1 channels, 48kHz.thd+ac3"...
    [a04] Creating file "00800 - 4 - E-AC3, Spanish, 7.1 channels, 768kbps, 48kHz.eac3"...
    [a05] Creating file "00800 - 5 - AC3, French, 5.1 channels, 640kbps, 48kHz.ac3"...
    [a06] Creating file "00800 - 6 - AC3 Surround, English, 2.0 channels, 192kbps, 48kHz.ac3"...
    [a07] Creating file "00800 - 7 - AC3 Surround, English, 2.0 channels, 192kbps, 48kHz.ac3"...
    [s09] Creating file "00800 - 9 - Subtitle (PGS), Spanish.sup"...
    [s10] Creating file "00800 - 10 - Subtitle (PGS), French.sup"...
    [s08] Creating file "00800 - 8 - Subtitle (PGS), English.sup"...
    [s11] Creating file "00800 - 11 - Subtitle (PGS), Spanish.sup"...
    [s12] Creating file "00800 - 12 - Subtitle (PGS), French.sup"...
    Video track 2 contains 179688 frames.
    Subtitle track 8 contains 1814 captions.
    Subtitle track 9 contains 1821 captions.
    Subtitle track 10 contains 1804 captions.
    Subtitle track 11 contains 45 captions.
    Subtitle track 12 contains 42 captions.
    eac3to processing took 2 minutes, 55 seconds.
    Done.Свернуть


    Подпишись на меня, кликни по картинке > : [img]http://img12.lostpic.net/2018/03/09/13af6981458d1d0b6a9d5e5286e0688e.gif[/img]

    [img]http://lostpix.com/img/2017-03/22/pa3kns75lpl0e564ik1il8ow9.gif[/img]
    Похожие раздачи Искать похожие
    Инструкция по скачиванию
     1  Качаем uTorrent версии 2.0 и выше
     2  После установки, жмем выше под постером на ссылку Скачать [MediaGet] или Скачать .torrent
     3  Открываем скачанный файл через соответствующий клиент: MediaGet или uTorrent
     4  Ждем пока подключатся участники
     5  Качаем
    Комментарии о  Темные времена / Darkest Hour | BDRemux 1080p 
    Ближайшее в кино
    Вверх