• Игры для PS4
  • Игры для PS3
  • Игры для XBOX360
  • Игры для PC
  • Игры для PS2
  • Игры для PSP
  • Для телефонов
  • Музыка
  • Книги / Журналы
  • Обои
  • Опрос
    Откуда Вы о нас узнали?
      0
    • От знакомых2,1,false,300,full
    • Из социальных сетей2,2,false,300,full
    • Из поисковых систем2,3,false,300,full
    • Другое2,4,false,300,full
    Статистика
    Всего онлайн -
    Гостей -
    Пользователей -
    Короли трекера
    Благодарности () Закрыть
    Название: Все меры предосторожности
    Оригинальное название: Extreme Prejudice
    Год выпуска: 1987
    Выпущено: США, Carolco Entertainment, TriStar Pictures
    Жанр:  Боевик, драма, криминал, вестерн
    Режиссер: Уолтер Хилл
    В ролях: Ник Нолти, Пауэрс Бут, Майкл Айронсайд, Мария Кончита Алонсо, Рип Торн, Клэнси Браун, Уильям Форсайт, Мэтт Малхерн, Лэрри Б. Скотт, Дэн Туллис мл., Джон Деннис Джонстон, Луис Контрерас, Гэри Сервантес, Томми Листер, Марко Родригес, Джэймс Лэйшли, Тони Фрэнк, Мики Джонс, Кент Липэм, Сэм Гони, Джил Рейс, Рик Гарсиа, Ричард Л. Дюран, Ларри Дюран, Кристина Гарсиа, Чарльз Льюис, Умберто Де Ла Торре

    О фильме: Джек Бентин, неуязвимый техасский рейнджер, должен проявить крутой характер. Ведь его друг детства — один из главарей контрабандной перевозки наркотиков через мексиканскую границу, и шесть агентов спецслужб получают задание захватить наркоторговца. Захочет ли Джек защитить своего друга?

    Продолжительность: 01:45:02
    Перевод: Профессиональный многоголосый, профессиональный двухголосый
    Субтитры: Нет

    Файл
    Формат: AVI
    Качество: BDRip
    Видео: XviD, 2000 Кбит/сек, 704x384, 23,976 кадра/сек
    Аудио #1: AC3, 6 ch, 384 Кбит/сек | Русский, профессиональный (многоголосый закадровый) Лицензия (cp digital)
    Аудио #2: AC3, 2 ch, 192 Кбит/сек | Русский, профессиональный (двухголосый закадровый) ОРТ



    Скриншоты
    [screen]http://img12.lostpic.net/2018/05/14/a950dbcca824112993a6c88222bcbfaf.png[/screen][screen]http://img12.lostpic.net/2018/05/14/23018203399ed9c256b9d6d52cfe91de.png[/screen][screen]http://img12.lostpic.net/2018/05/14/d00be5e1123e1379d22b9e0319ab7a7b.png[/screen][screen]http://img12.lostpic.net/2018/05/14/a628e828c444e140fc777abb4f8eb5b9.png[/screen][screen]http://img12.lostpic.net/2018/05/14/262702017588ffc2b1509b8df53dc302.png[/screen][screen]http://img12.lostpic.net/2018/05/14/f627d0312115d19d6427195b26b4a886.png[/screen]Свернуть


    Инфо-файл
    Общее
    Полное имя                               : Vse.mery.predostorozhnosti.1987.BDRip.KORSAR.avi
    Формат                                   : AVI
    Формат/Информация                        : Audio Video Interleave
    Размер файла                             : 1,90 Гбайт
    Продолжительность                        : 1 ч. 45 м.
    Общий поток                              : 2590 Кбит/сек
    Программа кодирования                    : VirtualDubModRus 1.5.10.2 (build 2542/release)
    Библиотека кодирования                   : VirtualDubMod build 2542/release

    Видео
    Идентификатор                            : 0
    Формат                                   : MPEG-4 Visual
    Профиль формата                          : Advanced Simple@L5
    Настройки формата                        : BVOP1 / Custom Matrix
    Параметр BVOP формата                    : 1
    Параметр QPel формата                    : Нет
    Параметр GMC формата                     : Без точки перехода
    Параметр матрицы формата                 : Выборочная
    Идентификатор кодека                     : XVID
    Идентификатор кодека/Подсказка           : XviD
    Продолжительность                        : 1 ч. 45 м.
    Битрейт                                  : 2000 Кбит/сек
    Ширина                                   : 704 пикселя
    Высота                                   : 384 пикселя
    Соотношение сторон                       : 1,85:1
    Частота кадров                           : 23,976 (24000/1001) кадра/сек
    Частота кадров в оригинале               : 23,976 (23976/1000) кадра/сек
    Цветовое пространство                    : YUV
    Субдискретизация насыщенности            : 4:2:0
    Битовая глубина                          : 8 бит
    Тип развёртки                            : Прогрессивная
    Метод сжатия                             : С потерями
    Бит/(Пиксели*Кадры)                      : 0.309
    Размер потока                            : 1,47 Гбайт (77%)
    Библиотека кодирования                   : XviD 1.2.1 (UTC 2008-12-04)

    Аудио #1
    Идентификатор                            : 1
    Формат                                   : AC-3
    Формат/Информация                        : Audio Coding 3
    Идентификатор кодека                     : 2000
    Продолжительность                        : 1 ч. 45 м.
    Вид битрейта                             : Постоянный
    Битрейт                                  : 384 Кбит/сек
    Каналы                                   : 6 каналов
    Расположение каналов                     : Front: L C R, Side: L R, LFE
    Частота                                  : 48,0 КГц
    Частота кадров                           : 31,250 кадров/сек (1536 SPF)
    Битовая глубина                          : 16 бит
    Метод сжатия                             : С потерями
    Размер потока                            : 288 Мбайт (15%)
    Выравнивание                             : Разделение по промежуткам
    Продолжительность промежутка             : 42  мс. (1,00 видеокадр)
    Время предзагрузки промежутка            : 500  мс.
    Заголовок                                : MVO

    Аудио #2
    Идентификатор                            : 2
    Формат                                   : AC-3
    Формат/Информация                        : Audio Coding 3
    Идентификатор кодека                     : 2000
    Продолжительность                        : 1 ч. 45 м.
    Вид битрейта                             : Постоянный
    Битрейт                                  : 192 Кбит/сек
    Каналы                                   : 2 канала
    Расположение каналов                     : Front: L R
    Частота                                  : 48,0 КГц
    Частота кадров                           : 31,250 кадров/сек (1536 SPF)
    Битовая глубина                          : 16 бит
    Метод сжатия                             : С потерями
    Размер потока                            : 144 Мбайт (7%)
    Выравнивание                             : Соединение по промежуткам
    Продолжительность промежутка             : 42  мс. (1,00 видеокадр)
    Время предзагрузки промежутка            : 512  мс.
    Заголовок                                : DVO | ОРТСвернуть
    Похожие раздачи Искать похожие
    Инструкция по скачиванию
     1  Качаем uTorrent версии 2.0 и выше
     2  После установки, жмем выше под постером на ссылку Скачать [MediaGet] или Скачать .torrent
     3  Открываем скачанный файл через соответствующий клиент: MediaGet или uTorrent
     4  Ждем пока подключатся участники
     5  Качаем
    Комментарии о  Все меры предосторожности / Extreme Prejudice | BDRip 
    Ближайшее в кино
    Вверх