• Игры для PS4
  • Игры для PS3
  • Игры для XBOX360
  • Игры для PC
  • Игры для PS2
  • Игры для PSP
  • Для телефонов
  • Музыка
  • Книги / Журналы
  • Обои
  • Опрос
    Откуда Вы о нас узнали?
      0
    • От знакомых2,1,false,300,full
    • Из социальных сетей2,2,false,300,full
    • Из поисковых систем2,3,false,300,full
    • Другое2,4,false,300,full
    Статистика
    Всего онлайн -
    Гостей -
    Пользователей -
    Короли трекера
    
    Благодарности () Закрыть
    Быстрее загружает сайты Экономит интернет—трафик Меняет оформление страницы ВК Блокирует всю рекламу на сайтах Загружает торренты как µTorrent клиент Объеденяет все твои чаты из соц. сетей в один Проигрывает твою музыку не заходя во ВКонтакте
    Новый интернет-браузер
    Оrbitum
    Скачать
    и многое другое... Подробности на сайте производителя
    Название: Все меры предосторожности
    Оригинальное название: Extreme Prejudice
    Год выпуска: 1987
    Выпущено: США, Carolco Entertainment, TriStar Pictures
    Жанр:  Боевик, драма, криминал, вестерн
    Режиссер: Уолтер Хилл
    В ролях: Ник Нолти, Пауэрс Бут, Майкл Айронсайд, Мария Кончита Алонсо, Рип Торн, Клэнси Браун, Уильям Форсайт, Мэтт Малхерн, Лэрри Б. Скотт, Дэн Туллис мл., Джон Деннис Джонстон, Луис Контрерас, Гэри Сервантес, Томми Листер, Марко Родригес, Джэймс Лэйшли, Тони Фрэнк, Мики Джонс, Кент Липэм, Сэм Гони, Джил Рейс, Рик Гарсиа, Ричард Л. Дюран, Ларри Дюран, Кристина Гарсиа, Чарльз Льюис, Умберто Де Ла Торре

    О фильме: Джек Бентин, неуязвимый техасский рейнджер, должен проявить крутой характер. Ведь его друг детства — один из главарей контрабандной перевозки наркотиков через мексиканскую границу, и шесть агентов спецслужб получают задание захватить наркоторговца. Захочет ли Джек защитить своего друга?

    Продолжительность: 01:45:02
    Перевод: Профессиональный многоголосый, профессиональный двухголосый, авторский
    Субтитры: Финские, немецкие, итальянские
    Навигация по главам: Есть

    Файл
    Качество: BDRip 720p
    Видео: MPEG-4 AVC, 7403 Кбит/сек, 1280x692, 23,976 кадра/сек
    Аудио #1: AC3, 6 ch, 448 Кбит/сек | Русский, профессиональный (многоголосый закадровый) Лицензия (cp digital)
    Аудио #2: AC3, 2 ch, 192 Кбит/сек | Русский, профессиональный (двухголосый закадровый) ОРТ
    Аудио #3: AC3, 2 ch, 192 Кбит/сек | Русский, авторский (одноголосый закадровый) Андрей Гаврилов
    Аудио #4: AC3, 2 ch, 192 Кбит/сек | Русский, авторский (одноголосый закадровый) Василий Горчаков
    Аудио #5: AC3, 2 ch, 192 Кбит/сек | Английский, оригинал



    Скриншоты
    [screen]http://img12.lostpic.net/2018/05/14/dbdcdfc2c48e27e9b73a73a188bbd191.png[/screen][screen]http://img12.lostpic.net/2018/05/14/ab48329a68dd6ad755cb719c0ef7c821.png[/screen][screen]http://img12.lostpic.net/2018/05/14/5162730ca1effd8978b9c7537fdeba68.png[/screen][screen]http://img12.lostpic.net/2018/05/14/5162730ca1effd8978b9c7537fdeba68.png[/screen][screen]http://img12.lostpic.net/2018/05/14/c9cd82acbf469291093ff3a9e8ff331a.png[/screen][screen]http://img12.lostpic.net/2018/05/14/5d0c2b2fe9792e57eb5cea535025ecf9.png[/screen][screen]http://img12.lostpic.net/2018/05/14/613a8ca0cbddd016041c290e23124702.png[/screen][screen]http://img12.lostpic.net/2018/05/14/185c28d7e54722d3700c9733234dcb0c.png[/screen]Свернуть


    Инфо-файл
    x264 [info]: frame I:920   Avg QP:15.77  size:149215
    x264 [info]: frame P:32188 Avg QP:18.51  size: 71865
    x264 [info]: frame B:117996 Avg QP:20.42  size: 28637
    -----------------------------------------------------
    Общее
    Уникальный идентификатор                 : 178245139967200952421755911641932072354 (0x8618C3E773CD7066864A9E812D6585A2)
    Полное имя                               : Все.меры.предосторожности.1987.BDRip.720p.KORSAR.mkv
    Формат                                   : Matroska
    Версия формата                           : Version 2
    Размер файла                             : 6,32 Гбайт
    Продолжительность                        : 1 ч. 45 м.
    Общий поток                              : 8619 Кбит/сек
    Дата кодирования                         : UTC 2018-05-14 09:32:51
    Программа кодирования                    : mkvmerge v5.8.0 ("No Sleep / Pillow") built on Sep  2 2012 15:37:04
    Библиотека кодирования                   : libebml v1.2.3 + libmatroska v1.3.0

    Видео
    Идентификатор                            : 1
    Формат                                   : AVC
    Формат/Информация                        : Advanced Video Codec
    Профиль формата                          : High@L4.1
    Настройки формата                        : CABAC / 9 Ref Frames
    Параметр CABAC формата                   : Да
    Параметр RefFrames формата               : 9 кадров
    Идентификатор кодека                     : V_MPEG4/ISO/AVC
    Продолжительность                        : 1 ч. 45 м.
    Битрейт                                  : 7403 Кбит/сек
    Ширина                                   : 1280 пикселей
    Высота                                   : 692 пикселя
    Соотношение сторон                       : 1,85:1
    Режим частоты кадров                     : Постоянный
    Частота кадров                           : 23,976 (24000/1001) кадра/сек
    Цветовое пространство                    : YUV
    Субдискретизация насыщенности            : 4:2:0
    Битовая глубина                          : 8 бит
    Тип развёртки                            : Прогрессивная
    Бит/(Пиксели*Кадры)                      : 0.349
    Размер потока                            : 5,31 Гбайт (84%)
    Заголовок                                : RIP | MZMA
    Библиотека кодирования                   : x264 core 152 r2851kMod ba24899
    Настройки программы                      : cabac=1 / ref=9 / deblock=1:-2:-2 / analyse=0x3:0x113 / me=umh / subme=11 / psy=1 / fade_compensate=0.00 / psy_rd=1.00:0.00 / mixed_ref=1 / me_range=48 / chroma_me=1 / trellis=2 / 8x8dct=1 / cqm=0 / deadzone=21,11 / fast_pskip=0 / chroma_qp_offset=-2 / threads=6 / lookahead_threads=1 / sliced_threads=0 / nr=0 / decimate=0 / interlaced=0 / bluray_compat=0 / constrained_intra=0 / bframes=16 / b_pyramid=2 / b_adapt=2 / b_bias=0 / direct=3 / weightb=1 / open_gop=0 / weightp=2 / keyint=240 / keyint_min=23 / scenecut=40 / intra_refresh=0 / rc_lookahead=40 / rc=2pass / mbtree=0 / bitrate=7403 / ratetol=1.0 / qcomp=0.60 / qpmin=0 / qpmax=69 / qpstep=4 / cplxblur=20.0 / qblur=0.5 / vbv_maxrate=50000 / vbv_bufsize=62500 / nal_hrd=none / filler=0 / ip_ratio=1.40 / pb_ratio=1.30 / aq=1:0.80
    Язык                                     : English
    Default                                  : Да
    Forced                                   : Нет
    Цветовой диапазон                        : Limited
    Основные цвета                           : BT.709
    Характеристики трансфера                 : BT.709
    Коэффициенты матрицы                     : BT.709

    Аудио #1
    Идентификатор                            : 2
    Формат                                   : AC-3
    Формат/Информация                        : Audio Coding 3
    Идентификатор кодека                     : A_AC3
    Продолжительность                        : 1 ч. 45 м.
    Вид битрейта                             : Постоянный
    Битрейт                                  : 448 Кбит/сек
    Каналы                                   : 6 каналов
    Расположение каналов                     : Front: L C R, Side: L R, LFE
    Частота                                  : 48,0 КГц
    Частота кадров                           : 31,250 кадров/сек (1536 SPF)
    Битовая глубина                          : 16 бит
    Метод сжатия                             : С потерями
    Размер потока                            : 337 Мбайт (5%)
    Заголовок                                : MVO
    Язык                                     : Russian
    По умолчанию                             : Да
    Принудительно                            : Нет

    Аудио #2
    Идентификатор                            : 3
    Формат                                   : AC-3
    Формат/Информация                        : Audio Coding 3
    Идентификатор кодека                     : A_AC3
    Продолжительность                        : 1 ч. 45 м.
    Вид битрейта                             : Постоянный
    Битрейт                                  : 192 Кбит/сек
    Каналы                                   : 2 канала
    Расположение каналов                     : Front: L R
    Частота                                  : 48,0 КГц
    Частота кадров                           : 31,250 кадров/сек (1536 SPF)
    Битовая глубина                          : 16 бит
    Метод сжатия                             : С потерями
    Размер потока                            : 144 Мбайт (2%)
    Заголовок                                : DVO | ОРТ
    Язык                                     : Russian
    По умолчанию                             : Нет
    Принудительно                            : Нет

    Аудио #3
    Идентификатор                            : 4
    Формат                                   : AC-3
    Формат/Информация                        : Audio Coding 3
    Идентификатор кодека                     : A_AC3
    Продолжительность                        : 1 ч. 45 м.
    Вид битрейта                             : Постоянный
    Битрейт                                  : 192 Кбит/сек
    Каналы                                   : 2 канала
    Расположение каналов                     : Front: L R
    Частота                                  : 48,0 КГц
    Частота кадров                           : 31,250 кадров/сек (1536 SPF)
    Битовая глубина                          : 16 бит
    Метод сжатия                             : С потерями
    Размер потока                            : 144 Мбайт (2%)
    Заголовок                                : AVO | А. Гаврилов
    Язык                                     : Russian
    По умолчанию                             : Нет
    Принудительно                            : Нет

    Аудио #4
    Идентификатор                            : 5
    Формат                                   : AC-3
    Формат/Информация                        : Audio Coding 3
    Идентификатор кодека                     : A_AC3
    Продолжительность                        : 1 ч. 45 м.
    Вид битрейта                             : Постоянный
    Битрейт                                  : 192 Кбит/сек
    Каналы                                   : 2 канала
    Расположение каналов                     : Front: L R
    Частота                                  : 48,0 КГц
    Частота кадров                           : 31,250 кадров/сек (1536 SPF)
    Битовая глубина                          : 16 бит
    Метод сжатия                             : С потерями
    Размер потока                            : 144 Мбайт (2%)
    Заголовок                                : AVO | В. Горчаков
    Язык                                     : Russian
    По умолчанию                             : Нет
    Принудительно                            : Нет

    Аудио #5
    Идентификатор                            : 6
    Формат                                   : AC-3
    Формат/Информация                        : Audio Coding 3
    Идентификатор кодека                     : A_AC3
    Продолжительность                        : 1 ч. 45 м.
    Вид битрейта                             : Постоянный
    Битрейт                                  : 192 Кбит/сек
    Каналы                                   : 2 канала
    Расположение каналов                     : Front: L R
    Частота                                  : 48,0 КГц
    Частота кадров                           : 31,250 кадров/сек (1536 SPF)
    Битовая глубина                          : 16 бит
    Метод сжатия                             : С потерями
    Размер потока                            : 144 Мбайт (2%)
    Заголовок                                : Original
    Язык                                     : English
    По умолчанию                             : Нет
    Принудительно                            : Нет

    Текст #1
    Идентификатор                            : 7
    Формат                                   : UTF-8
    Идентификатор кодека                     : S_TEXT/UTF8
    Идентификатор кодека/Информация          : UTF-8 Plain Text
    Язык                                     : Finnish
    По умолчанию                             : Нет
    Принудительно                            : Нет

    Текст #2
    Идентификатор                            : 8
    Формат                                   : UTF-8
    Идентификатор кодека                     : S_TEXT/UTF8
    Идентификатор кодека/Информация          : UTF-8 Plain Text
    Язык                                     : German
    По умолчанию                             : Нет
    Принудительно                            : Нет

    Текст #3
    Идентификатор                            : 9
    Формат                                   : UTF-8
    Идентификатор кодека                     : S_TEXT/UTF8
    Идентификатор кодека/Информация          : UTF-8 Plain Text
    Язык                                     : Italian
    По умолчанию                             : Нет
    Принудительно                            : Нет

    Меню
    00:00:00.000                             : en:00:00:00.000
    00:06:16.751                             : en:00:06:16.751
    00:10:19.077                             : en:00:10:19.077
    00:13:48.119                             : en:00:13:48.119
    00:16:36.495                             : en:00:16:36.495
    00:22:22.007                             : en:00:22:22.007
    00:25:14.263                             : en:00:25:14.263
    00:30:42.966                             : en:00:30:42.966
    00:36:57.507                             : en:00:36:57.507
    00:39:27.865                             : en:00:39:27.865
    00:44:58.696                             : en:00:44:58.696
    00:49:06.152                             : en:00:49:06.152
    00:50:52.258                             : en:00:50:52.258
    01:02:28.662                             : en:01:02:28.662
    01:07:33.091                             : en:01:07:33.091
    01:10:46.075                             : en:01:10:46.075
    01:16:23.662                             : en:01:16:23.662
    01:21:21.251                             : en:01:21:21.251
    01:25:25.912                             : en:01:25:25.912
    01:30:46.983                             : en:01:30:46.983
    01:37:14.120                             : en:01:37:14.120Свернуть




    Инструкция по скачиванию
     1  Качаем uTorrent версии 2.0 и выше
     2  После установки, жмем выше под постером на ссылку Скачать [MediaGet] или Скачать .torrent
     3  Открываем скачанный файл через соответствующий клиент: MediaGet или uTorrent
     4  Ждем пока подключатся участники
     5  Качаем
    Комментарии о  Все меры предосторожности / Extreme Prejudice | BDRip 720p 
    Ближайшее в кино
    Вверх