• Игры для PS4
  • Игры для PS3
  • Игры для XBOX360
  • Игры для PC
  • Игры для PS2
  • Игры для PSP
  • Для телефонов
  • Музыка
  • Книги / Журналы
  • Обои
  • Опрос
    Откуда Вы о нас узнали?
      0
    • От знакомых2,1,false,300,full
    • Из социальных сетей2,2,false,300,full
    • Из поисковых систем2,3,false,300,full
    • Другое2,4,false,300,full
    Статистика
    Всего онлайн -
    Гостей -
    Пользователей -
    Короли трекера
    
    Благодарности () Закрыть
    Быстрее загружает сайты Экономит интернет—трафик Меняет оформление страницы ВК Блокирует всю рекламу на сайтах Загружает торренты как µTorrent клиент Объеденяет все твои чаты из соц. сетей в один Проигрывает твою музыку не заходя во ВКонтакте
    Новый интернет-браузер
    Оrbitum
    Скачать
    и многое другое... Подробности на сайте производителя
    Темные времена / Darkest Hour
    «Никогда не сдавайся»

    Год выпуска: 2017
    Страна: Великобритания
    Производство: Working Title Films
    Жанр:  Драма, биография

    Режиссёр: Джо Райт
    В ролях: Лили Джеймс, Гэри Олдман, Бен Мендельсон, Кристин Скотт Томас, Стивен Диллэйн, Сэмюэл Уэст, Ханна Стил, Рональд Пикап, Анна Барнетт, Николас Джонс

    Перевод: Дублированный | Лицензия
    Субтитры: Русские, английские
    Реклама: Отсутствует

    Описание: Когда фашистская Германия развязала войну, начав бомбардировать Польшу, правители многих стран, в первую очередь европейских, стали оценивать ситуацию, пытаясь спрогнозировать дальнейшее развитие событий на мировой арене. Им было ясно, что война не ограничится одной страной, а зацепит и другие государства, принесет много бед и страданий многим народам. Одной из первых европейских стран, которая осознала это и объявила фашизму войну, была Британия. В этот трудный для страны военный период на вершину власти восходит Уинстон Черчилль, который становится премьер-министром. Впрочем, после того, как на Черчилля возлагается важная и ответственная функция, согласно с которой он отвечает за оборону страны, некоторые государственные деятели и политики совершают преступный заговор. Они заключают сделку с влиятельными нацистскими деятелями, согласно с которой Британия будет оказывать поддержку и помощь фашистской армии. Узнав об этом, Черчилль приходит в ярость, он объявляет заключенный договор незаконным и разрывает его, принимая сторону СССР. Дальновидный политик смог объективно оценить сложившуюся ситуацию и принять меры, способствующие безопасности граждан своей страны.



    Качество: BDRip-AVC
    Продолжительность: 02:04:54

    Формат: MKV
    Видео кодек: MPEG-4 AVC
    Аудио кодек: AC3
    Видео: 1024x554 (1.85:1), 23,976 fps, x264 ~1 896 kbps avg, 0.139 bit/pixel
    Аудио #1: 48 kHz, AC3 Dolby Digital, 3/2 (L,C,R,l,r) + LFE ch, ~448.00 kbps avg | RUS (Лицензия)
    Аудио #2: 48 kHz, AC3 Dolby Digital, 3/2 (L,C,R,l,r) + LFE ch, ~448.00 kbps avg | ENG

    Дата премьеры (мир): 1 сентября 2017
    Дата премьеры (РФ): 18 января 2018, «UPI»

    MediaInfo

    Общее
    Уникальный идентификатор                 : 223741286363554955369730272736136704952 (0xA853011B2317C40EA9C03C79DA98B3B8)
    Полное имя                               : E:OlLanDGroupDarkest.Hour.2017.BDRip(AVC).OlLanDGroup.mkv
    Формат                                   : Matroska
    Версия формата                           : Version 4 / Version 2
    Размер файла                             : 2,44 Гбайт
    Продолжительность                        : 2 ч. 4 м.
    Общий поток                              : 2794 Кбит/сек
    Название фильма                          : Darkest.Hour.2017   #TorpedoUK#
    Дата кодирования                         : UTC 2018-05-17 13:32:56
    Программа кодирования                    : mkvmerge v8.3.0 ("Over the Horizon") 64bit
    Библиотека кодирования                   : libebml v1.3.1 + libmatroska v1.4.2
    Обложка                                  : Yes
    Attachments                              : small_cover.jpg / small_cover_land.jpg / cover.jpg / cover_land.jpg

    Видео
    Идентификатор                            : 1
    Формат                                   : AVC
    Формат/Информация                        : Advanced Video Codec
    Профиль формата                          : High@L4.1
    Параметр CABAC формата                   : Да
    Параметр ReFrames формата                : 10 кадров
    Идентификатор кодека                     : V_MPEG4/ISO/AVC
    Продолжительность                        : 2 ч. 4 м.
    Битрейт                                  : 1896 Кбит/сек
    Ширина                                   : 1024 пикселя
    Высота                                   : 554 пикселя
    Соотношение сторон                       : 1,85:1
    Режим частоты кадров                     : Постоянный
    Частота кадров                           : 23,976 (24000/1001) кадра/сек
    Цветовое пространство                    : YUV
    Субдискретизация насыщенности            : 4:2:0
    Битовая глубина                          : 8 бит
    Тип развёртки                            : Прогрессивная
    Бит/(Пиксели*Кадры)                      : 0.139
    Размер потока                            : 1,65 Гбайт (68%)
    Библиотека кодирования                   : x264 core 146 r2538 121396c
    Настройки программы                      : cabac=1 / ref=10 / deblock=1:-3:-3 / analyse=0x3:0x133 / me=umh / subme=11 / psy=1 / psy_rd=1.00:0.03 / mixed_ref=1 / me_range=48 / chroma_me=1 / trellis=2 / 8x8dct=1 / cqm=0 / deadzone=21,11 / fast_pskip=1 / chroma_qp_offset=-3 / threads=6 / lookahead_threads=1 / sliced_threads=0 / nr=0 / decimate=1 / interlaced=0 / bluray_compat=0 / constrained_intra=0 / bframes=10 / b_pyramid=2 / b_adapt=2 / b_bias=0 / direct=3 / weightb=1 / open_gop=0 / weightp=2 / keyint=240 / keyint_min=23 / scenecut=40 / intra_refresh=0 / rc_lookahead=40 / rc=2pass / mbtree=0 / bitrate=1896 / ratetol=1.0 / qcomp=0.60 / qpmin=0 / qpmax=69 / qpstep=4 / cplxblur=20.0 / qblur=0.5 / vbv_maxrate=50000 / vbv_bufsize=62500 / nal_hrd=none / filler=0 / ip_ratio=1.40 / pb_ratio=1.30 / aq=1:1.00
    Язык                                     : English
    Default                                  : Да
    Forced                                   : Нет

    Аудио #1
    Идентификатор                            : 2
    Формат                                   : AC-3
    Формат/Информация                        : Audio Coding 3
    Расширение режима                        : CM (complete main)
    Параметр Endianness формата              : Big
    Идентификатор кодека                     : A_AC3
    Продолжительность                        : 2 ч. 4 м.
    Вид битрейта                             : Постоянный
    Битрейт                                  : 448 Кбит/сек
    Каналы                                   : 6 каналов
    Расположение каналов                     : Front: L C R, Side: L R, LFE
    Частота                                  : 48,0 КГц
    Частота кадров                           : 31,250 кадров/сек (1536 spf)
    Битовая глубина                          : 16 бит
    Метод сжатия                             : С потерями
    Размер потока                            : 400 Мбайт (16%)
    Заголовок                                : Dub (License)
    Default                                  : Да
    Forced                                   : Нет

    Аудио #2
    Идентификатор                            : 3
    Формат                                   : AC-3
    Формат/Информация                        : Audio Coding 3
    Расширение режима                        : CM (complete main)
    Параметр Endianness формата              : Big
    Идентификатор кодека                     : A_AC3
    Продолжительность                        : 2 ч. 4 м.
    Вид битрейта                             : Постоянный
    Битрейт                                  : 448 Кбит/сек
    Каналы                                   : 6 каналов
    Расположение каналов                     : Front: L C R, Side: L R, LFE
    Частота                                  : 48,0 КГц
    Частота кадров                           : 31,250 кадров/сек (1536 spf)
    Битовая глубина                          : 16 бит
    Метод сжатия                             : С потерями
    Размер потока                            : 400 Мбайт (16%)
    Заголовок                                : Original
    Язык                                     : English
    Default                                  : Нет
    Forced                                   : Нет

    Текст #1
    Идентификатор                            : 4
    Формат                                   : UTF-8
    Идентификатор кодека                     : S_TEXT/UTF8
    Идентификатор кодека/Информация          : UTF-8 Plain Text
    Продолжительность                        : 1 ч. 58 м.
    Битрейт                                  : 1 бит/сек
    Count of elements                        : 19
    Размер потока                            : 1,64 Кбайт (0%)
    Заголовок                                : Forced
    Язык                                     : Russian
    Default                                  : Да
    Forced                                   : Нет

    Текст #2
    Идентификатор                            : 5
    Формат                                   : UTF-8
    Идентификатор кодека                     : S_TEXT/UTF8
    Идентификатор кодека/Информация          : UTF-8 Plain Text
    Продолжительность                        : 1 ч. 59 м.
    Битрейт                                  : 111 бит/сек
    Count of elements                        : 1795
    Размер потока                            : 97,8 Кбайт (0%)
    Заголовок                                : Full
    Язык                                     : Russian
    Default                                  : Нет
    Forced                                   : Нет

    Текст #3
    Идентификатор                            : 6
    Формат                                   : UTF-8
    Идентификатор кодека                     : S_TEXT/UTF8
    Идентификатор кодека/Информация          : UTF-8 Plain Text
    Продолжительность                        : 1 ч. 57 м.
    Битрейт                                  : 56 бит/сек
    Count of elements                        : 1759
    Размер потока                            : 48,4 Кбайт (0%)
    Заголовок                                : Full
    Язык                                     : English
    Default                                  : Нет
    Forced                                   : Нет

    Текст #4
    Идентификатор                            : 7
    Формат                                   : UTF-8
    Идентификатор кодека                     : S_TEXT/UTF8
    Идентификатор кодека/Информация          : UTF-8 Plain Text
    Продолжительность                        : 1 ч. 57 м.
    Битрейт                                  : 58 бит/сек
    Count of elements                        : 1814
    Размер потока                            : 49,9 Кбайт (0%)
    Заголовок                                : SDH
    Язык                                     : English
    Default                                  : Нет
    Forced                                   : Нет

    Меню
    00:00:00.000                             : en:Chapter 01
    00:05:20.028                             : en:Chapter 02
    00:10:17.950                             : en:Chapter 03
    00:13:59.588                             : en:Chapter 04
    00:22:33.060                             : en:Chapter 05
    00:29:23.178                             : en:Chapter 06
    00:37:09.518                             : en:Chapter 07
    00:41:04.587                             : en:Chapter 08
    00:48:26.904                             : en:Chapter 09
    00:56:16.498                             : en:Chapter 10
    01:02:38.463                             : en:Chapter 11
    01:10:57.002                             : en:Chapter 12
    01:18:41.466                             : en:Chapter 13
    01:24:05.790                             : en:Chapter 14
    01:30:25.628                             : en:Chapter 15
    01:35:58.753                             : en:Chapter 16
    01:39:33.968                             : en:Chapter 17
    01:45:20.105                             : en:Chapter 18
    01:52:55.226                             : en:Chapter 19
    01:59:45.511                             : en:Chapter 20
    Свернуть


    Скриншоты

    [screen]http://lostpix.com/img/2018-03/15/h27csw2wug5p5sbkj7cbohn40.jpg[/screen][screen]http://lostpix.com/img/2018-03/15/rpyxeo6l8o8ybs691o0ay7czk.jpg[/screen]
    [screen]http://lostpix.com/img/2018-03/15/kceku9hymdtya9vz0ev6clkbl.jpg[/screen][screen]http://lostpix.com/img/2018-03/15/98oyiy2m9l78tukxe9xcuncy9.jpg[/screen]
    [screen]http://lostpix.com/img/2018-03/15/81kh2wgza58zwjy9gvr16f538.jpg[/screen][screen]http://lostpix.com/img/2018-03/15/og0cf83pfubljcgh23rq1xbin.jpg[/screen]
    Свернуть
    Похожие раздачи Искать похожие
    Инструкция по скачиванию
     1  Качаем uTorrent версии 2.0 и выше
     2  После установки, жмем выше под постером на ссылку Скачать [MediaGet] или Скачать .torrent
     3  Открываем скачанный файл через соответствующий клиент: MediaGet или uTorrent
     4  Ждем пока подключатся участники
     5  Качаем
    Комментарии о  Темные времена / Darkest Hour | BDRip-AVC 
    Ближайшее в кино
    Вверх